<?xml version="1.0" standalone="no"?>
<!DOCTYPE svg PUBLIC "-//W3C//DTD SVG 1.1//EN" "http://www.w3.org/Graphics/SVG/1.1/DTD/svg11.dtd" >
<svg xmlns="http://www.w3.org/2000/svg">
<metadata>Generated by IcoMoon</metadata>
<defs>
<font id="icomoon" horiz-adv-x="1024">
<font-face units-per-em="1024" ascent="960" descent="-64" />
<missing-glyph horiz-adv-x="1024" />
<glyph unicode="&#x20;" horiz-adv-x="512" d="" />
<glyph unicode="&#xe900;" glyph-name="packages" d="M113 207v-126h126v126zM187.788 177l-44.788-44.788v44.788zM164.212 111l44.788 44.788v-44.788zM352 143h32v-30h-32zM416 143h32v-30h-32zM576 495h32v-30h-32zM640 495h32v-30h-32zM800 143h32v-30h-32zM864 143h32v-30h-32zM975 47v352h-672v322h130v-128h158v128h130v-289h30v319h-478v-352h-224v-175h30v145h130v-128h158v128h130v-322h-418v145h-30v-145h-49v-30h1024v30zM463 721h34v-98h-34zM561 623h-34v98h34zM687 369h34v-98h-34zM751 369h34v-98h-34zM239 369h34v-98h-34zM337 271h-34v98h34zM527 369h130v-128h158v128h130v-322h-418zM561 81h126v126h-126zM612.212 111l44.788 44.788v-44.788zM635.788 177l-44.788-44.788v44.788zM337 433h126v126h-126zM388.212 463l44.788 44.788v-44.788zM411.788 529l-44.788-44.788v44.788zM887.68 595.52l8.32-5.546 8.32 5.546c4.192 2.794 102.68 69.634 102.68 172.48 0 61.206-49.794 111-111 111s-111-49.794-111-111c0-102.846 98.488-169.686 102.68-172.48zM896 849c44.662 0 81-36.338 81-81 0-35.906-14.76-71.446-43.872-105.632-14.128-16.592-28.438-28.866-37.128-35.702-8.694 6.838-23.002 19.11-37.13 35.702-29.11 34.186-43.87 69.726-43.87 105.632 0 44.662 36.336 81 81 81zM896 721c25.916 0 47 21.084 47 47s-21.084 47-47 47-47-21.084-47-47 21.084-47 47-47zM896 785c9.374 0 17-7.626 17-17s-7.626-17-17-17-17 7.626-17 17 7.626 17 17 17z" />
<glyph unicode="&#xe901;" glyph-name="order" d="M415.812 863.812h256.501v-30.059h-256.501zM415.812 799.687h192.376v-30.059h-192.376zM806.788 960h-502.193v-335.656h30.059v305.597h450.881v-160.313h160.313v-675.319h-321.628v-30.059h351.687v726.631zM815.593 908.688l109.001-109.001h-109.001zM223.436 222.56h32.063v-30.059h-32.063zM462.904 288.689h416.814v414.81h-478.935v-352.689h-66.129v241.472h-30.059v-241.472h-128.25v-192.376h-128.25v-222.434h543.061v222.434h-128.25zM559.092 318.748v66.129h290.568v-66.129zM529.033 511.123h-98.192v66.129h98.192zM559.092 577.252h290.568v-66.129h-290.568zM529.033 481.065v-66.129h-98.192v66.129zM559.092 481.065h290.568v-66.129h-290.568zM849.659 607.311h-290.568v66.129h290.568zM529.033 673.44v-66.129h-98.192v66.129zM430.841 384.877h98.192v-66.129h-66.129v32.063h-32.063zM302.591 320.751h34.067v-66.129h-34.067zM206.403 320.751h66.129v-96.188h94.184v96.188h66.129v-162.317h-226.442zM430.841 128.376h34.067v-66.129h-34.067zM174.341 128.376h34.067v-66.129h-34.067zM78.153 128.376h66.129v-96.188h94.184v96.188h66.129v-162.317h-226.442zM561.096-33.941h-226.442v162.317h66.129v-96.188h94.184v96.188h66.129zM95.186 30.184h32.063v-30.059h-32.063zM351.687 30.184h32.063v-30.059h-32.063z" />
<glyph unicode="&#xe902;" glyph-name="packages1" d="M256 303.146h32v-30h-32zM128 111.146h32v-30h-32zM384 111.146h32v-30h-32zM704 111.146h32v-30h-32zM512 465.146c35.19 0 68.35 8.836 97.396 24.39l190.604-190.604 85.212 85.212-190.604 190.604c15.554 29.046 24.39 62.206 24.39 97.396 0 114.14-92.86 207-207 207s-207-92.86-207-207 92.862-206.998 207.002-206.998zM842.788 384.146l-42.788-42.788-164.654 164.654c16.258 12.102 30.686 26.53 42.788 42.788zM512 849.146c97.598 0 177-79.402 177-177s-79.402-177-177-177-177 79.402-177 177 79.402 177 177 177zM512 529.146c78.85 0 143 64.15 143 143 0 50.892-27.394 98.352-71.49 123.86l-15.022-25.968c34.858-20.162 56.51-57.672 56.51-97.89 0-62.308-50.692-113-113-113s-113 50.692-113 113 50.692 113 113 113c9.578 0 19.084-1.198 28.26-3.56l7.478 29.052c-11.618 2.99-23.642 4.506-35.74 4.506-78.85 0-143-64.15-143-143s64.154-143 143.004-143zM943 46.854v192.29h-286v-192.29h-34v192.29h-384v162h66v-96h94v96h66v-129h30v159h-286v-192h-128v-159h30v129h66v-96h94v96h66v-162.29h-337v-30h1024v30zM369 335.146h-34v66h34zM783 209.146h34v-66h-34zM687 209.146h66v-96h94v96h66v-162.29h-226zM463 209.146h34v-66h-34zM241 143.146h-34v66h34zM367 209.146h66v-96h94v96h66v-162.29h-226zM432 687.146h32v-30h-32zM496 687.146h32v-30h-32zM560 687.146h32v-30h-32z" />
<glyph unicode="&#xe903;" glyph-name="website" d="M63.123 767.624h32.063v-30.059h-32.063zM127.249 767.624h32.063v-30.059h-32.063zM191.374 767.624h32.063v-30.059h-32.063zM255.499 382.873h352.689v-30.059h-352.689zM255.499 446.998h416.814v-30.059h-416.814zM80.157 320.751h126.247v126.247h-126.247zM110.215 416.939h66.129v-66.129h-66.129zM255.499 543.186h352.689v-30.059h-352.689zM255.499 607.311h416.814v-30.059h-416.814zM80.157 481.065h126.247v126.247h-126.247zM110.215 577.252h66.129v-66.129h-66.129zM255.499 222.56h352.689v-30.059h-352.689zM255.499 286.685h416.814v-30.059h-416.814zM80.157 160.438h126.247v126.247h-126.247zM110.215 256.626h66.129v-66.129h-66.129zM927.812 222.56v609.19h-927.812v-767.499h1024v158.309zM865.691 192.501v-98.192h-34.067v98.192zM799.562 222.56v98.192h34.067v-49.096h30.059v49.096h34.067v-98.192zM897.753 703.499h-611.194v98.192h611.194zM256.501 801.691v-98.192h-226.442v98.192zM673.315 94.309h-643.256v579.131h867.695v-322.63h-128.25v-128.25h-96.188zM703.374 192.501h34.067v-49.096h30.059v49.096h34.067v-98.192h-98.192zM993.941 94.309h-98.192v98.192h34.067v-49.096h30.059v49.096h34.067z" />
<glyph unicode="&#xe904;" glyph-name="shipping" d="M63.123 767.624h32.063v-30.059h-32.063zM127.249 767.624h32.063v-30.059h-32.063zM191.374 767.624h32.063v-30.059h-32.063zM927.812 222.56v609.19h-927.812v-767.499h1024v158.309zM865.691 192.501v-98.192h-34.067v98.192zM799.562 222.56v98.192h34.067v-49.096h30.059v49.096h34.067v-98.192zM897.753 703.499h-611.194v98.192h611.194zM256.501 801.691v-98.192h-226.442v98.192zM673.315 94.309h-643.256v579.131h867.695v-322.63h-128.25v-128.25h-96.188zM703.374 192.501h34.067v-49.096h30.059v49.096h34.067v-98.192h-98.192zM993.941 94.309h-98.192v98.192h34.067v-49.096h30.059v49.096h34.067zM815.593 496.094c0 61.326-49.891 111.217-111.217 111.217s-111.217-49.891-111.217-111.217c0-103.047 98.679-170.018 102.881-172.818l8.336-5.557 8.336 5.557c4.202 2.799 102.881 69.77 102.881 172.818zM704.376 354.483c-8.711 6.851-23.047 19.147-37.203 35.772-29.167 34.253-43.956 69.862-43.956 105.839 0 44.749 36.407 81.159 81.159 81.159s81.159-36.409 81.159-81.159c0-35.976-14.789-71.586-43.956-105.839-14.158-16.624-28.494-28.922-37.203-35.772zM704.376 543.186c-25.967 0-47.092-21.125-47.092-47.092s21.125-47.092 47.092-47.092 47.092 21.125 47.092 47.092-21.125 47.092-47.092 47.092zM704.376 479.061c-9.39 0-17.033 7.641-17.033 17.033s7.643 17.033 17.033 17.033 17.033-7.641 17.033-17.033-7.643-17.033-17.033-17.033zM469.311 517.53l38.469-38.469h-140.062v-30.059h140.062l-38.469-38.469 21.254-21.254 74.752 74.752-74.752 74.752zM223.436 575.249c-61.326 0-111.217-49.891-111.217-111.217s49.891-111.217 111.217-111.217 111.217 49.891 111.217 111.217-49.891 111.217-111.217 111.217zM223.436 382.873c-44.749 0-81.159 36.407-81.159 81.159s36.409 81.159 81.159 81.159 81.159-36.409 81.159-81.159-36.409-81.159-81.159-81.159zM238.466 528.157h-30.059v-70.349l36.465-36.465 21.254 21.254-27.66 27.66z" />
<glyph unicode="&#xe905;" glyph-name="cancel" d="M113 207v-126h126v126zM143 177h44.786l-44.786-44.786zM209 111h-44.786l44.786 44.786zM352 143h32v-30h-32zM416 143h32v-30h-32zM576 495h32v-30h-32zM640 495h32v-30h-32zM800 143h32v-30h-32zM864 143h32v-30h-32zM975 47v352h-224v161h-30v-161h-418v322h130v-128h158v128h66.792c7.522-71.826 68.426-128 142.208-128 78.85 0 143 64.15 143 143s-64.15 143-143 143c-73.784 0-134.686-56.174-142.208-128h-384.792v-352h-224v-175h30v145h130v-128h158v128h130v-322h-418v145h-30v-145h-49v-30h1024v30zM800 849c62.308 0 113-50.692 113-113s-50.692-113-113-113-113 50.692-113 113 50.692 113 113 113zM527 721h34v-98h-34zM463 721h34v-98h-34zM273 271h-34v98h34zM337 271h-34v98h34zM751 369h34v-98h-34zM687 369h34v-98h-34zM945 47h-418v322h130v-128h158v128h130zM561 81h126v126h-126zM657 111h-44.786l44.786 44.786zM591 177h44.786l-44.786-44.786zM337 433h126v126h-126zM433 463h-44.786l44.786 44.786zM367 529h44.786l-44.786-44.786zM746.608 661.394l53.392 53.392 53.392-53.392 21.216 21.212-53.394 53.394 53.394 53.394-21.216 21.212-53.392-53.392-53.392 53.392-21.216-21.212 53.394-53.394-53.394-53.394z" />
<glyph unicode="&#xe906;" glyph-name="web" d="M63.123 767.624h32.063v-30.059h-32.063zM127.249 767.624h32.063v-30.059h-32.063zM191.374 767.624h32.063v-30.059h-32.063zM927.812 222.56v609.19h-927.812v-767.499h1024v158.309zM286.56 801.691h611.194v-98.192h-611.194zM30.059 801.691h226.442v-98.192h-226.442zM673.315 94.309h-643.256v579.131h867.695v-322.63h-128.25v-128.25h-96.188zM863.687 271.656v49.096h34.067v-98.192h-98.192v98.192h34.067v-49.096zM801.566 94.309h-98.192v98.192h34.067v-49.096h30.059v49.096h34.067zM865.691 94.309h-34.067v98.192h34.067zM993.941 94.309h-98.192v98.192h34.067v-49.096h30.059v49.096h34.067zM512 639.374c-96.685 0-175.342-78.658-175.342-175.342 0-30.552 7.861-59.298 21.656-84.337l-164.147-164.149 69.347-69.347 164.149 164.149c25.039-13.797 53.785-21.658 84.337-21.658 96.685 0 175.342 78.658 175.342 175.342s-78.658 175.342-175.342 175.342zM263.515 188.706l-26.84 26.84 138.709 138.707c7.956-9.881 16.957-18.883 26.838-26.838zM512 318.748c-80.11 0-145.284 65.173-145.284 145.284s65.173 145.284 145.284 145.284 145.284-65.173 145.284-145.284-65.173-145.284-145.284-145.284zM512 575.249c-61.324 0-111.217-49.891-111.217-111.217s49.893-111.217 111.217-111.217 111.217 49.891 111.217 111.217-49.891 111.217-111.217 111.217zM512 382.873c-44.751 0-81.159 36.407-81.159 81.159s36.407 81.159 81.159 81.159 81.159-36.409 81.159-81.159-36.407-81.159-81.159-81.159zM463.906 479.061h32.063v-30.059h-32.063zM528.031 479.061h32.063v-30.059h-32.063z" />
<glyph unicode="&#xe907;" glyph-name="delivery" d="M415.406 641.189h34.033v-128.125h158.154v158.154h-224.219v98.096h34.033v-49.048h30.029v49.048h34.033v-65.064h30.029v95.093h-158.154v-128.125h-96.094v-158.154h158.154zM479.468 641.189h34.033v-49.048h30.029v49.048h34.033v-98.096h-98.096zM385.376 543.093h-98.096v98.096h34.033v-49.048h30.029v49.048h34.033zM1024 175.734c0 76.457-60.255 139.106-135.775 142.952l-78.919 98.648c2.466-0.232 4.963-0.364 7.489-0.364h15.015v158.154h-15.013c-37.368 0-68.745-26.065-76.959-60.964l-28.932 28.932h-54.265v-30.029h41.829l39.25-39.25v-185.97h30.029v133.368l84.216-105.271c-60.341-12.416-106.934-62.929-113.455-125.192h-177.964c-53.538 0-97.095 43.557-97.095 97.095s43.557 97.095 97.095 97.095h15.015v94.092h-286.28v-94.092h42.83l-66.227-66.227c-75.976-3.351-136.76-66.191-136.76-142.978v-15.015h65.51c7.037-36.446 39.16-64.063 77.63-64.063s70.593 27.617 77.63 64.063h453.335c7.037-36.446 39.16-64.063 77.63-64.063s70.593 27.617 77.63 64.063h65.51zM319.312 414.968v34.033h226.221v-34.033h-183.391zM272.266 126.686c-21.809 0-40.329 14.312-46.688 34.033h93.375c-6.358-19.721-24.878-34.033-46.688-34.033zM160.148 190.749c7.367 55.298 54.84 98.096 112.117 98.096s104.752-42.798 112.117-98.096zM414.623 190.749c-6.386 61.018-51.272 110.726-109.853 124.381l69.808 69.808h104.040c-27.615-23.337-45.196-58.193-45.196-97.095s17.581-73.758 45.196-97.095zM801.783 542.745v-93.395c-19.725 6.356-34.033 24.888-34.033 46.698s14.308 40.341 34.033 46.698zM880.86 126.686c-21.809 0-40.329 14.312-46.688 34.033h93.375c-6.358-19.721-24.878-34.033-46.688-34.033zM768.743 190.749c7.367 55.298 54.84 98.096 112.117 98.096 57.28 0 104.752-42.798 112.117-98.096zM64.063 430.983h192.188v-30.029h-192.188zM32.031 495.046h192.188v-30.029h-192.188zM0 559.109h192.188v-30.029h-192.188zM208.203 238.796h32.031v-30.029h-32.031zM240.235 270.827h32.031v-30.029h-32.031zM816.798 238.796h32.031v-30.029h-32.031zM848.829 270.827h32.031v-30.029h-32.031z" />
<glyph unicode="&#xe908;" glyph-name="package" d="M576.125 190.497h32.063v-30.059h-32.063zM640.25 190.497h32.063v-30.059h-32.063zM336.658 254.622v-126.247h126.247v126.247zM411.592 224.564l-44.876-44.876v44.876zM387.97 158.434l44.876 44.876v-44.876zM559.092 784.658c0 20.712-13.446 38.331-32.063 44.619v67.6h-30.059v-67.6c-18.616-6.288-32.063-23.907-32.063-44.619 0-25.967 21.125-47.092 47.092-47.092s47.092 21.125 47.092 47.092zM494.967 784.658c0 9.392 7.641 17.033 17.033 17.033s17.033-7.641 17.033-17.033-7.641-17.033-17.033-17.033-17.033 7.641-17.033 17.033zM496.971 703.499h30.059v-30.059h-30.059zM400.783 798.685h30.059v-30.059h-30.059zM593.159 798.685h30.059v-30.059h-30.059zM751.468 94.309v352.689h-192.376v168.748c73.886 20.626 128.25 88.535 128.25 168.912 0 96.685-78.658 175.342-175.342 175.342s-175.342-78.658-175.342-175.342c0-80.375 54.364-148.286 128.25-168.912v-168.748h-192.376v-175.342h30.059v145.284h130.254v-128.25h158.309v128.25h130.254v-322.63h-418.818v145.284h-30.059v-145.284h-128.25v-158.309h126.247v64.125h178.348v-64.125h126.247v64.125h178.348v-64.125h126.247v158.309zM366.716 784.658c0 80.11 65.173 145.284 145.284 145.284s145.284-65.173 145.284-145.284-65.173-145.284-145.284-145.284-145.284 65.173-145.284 145.284zM494.967 610.145c5.607-0.543 11.286-0.83 17.033-0.83s11.426 0.287 17.033 0.83v-163.147h-34.067zM462.904 416.939h34.067v-98.192h-34.067zM561.096 318.748h-34.067v98.192h34.067zM849.659 64.25v-34.067h-675.319v34.067zM240.47-33.941h-66.129v34.067h66.129zM545.065-33.941h-66.129v34.067h66.129zM783.53-33.941v34.067h66.129v-34.067z" />
<glyph unicode="&#xe909;" glyph-name="packages2" d="M113 207v-126h126v126zM187.788 177l-44.788-44.788v44.788zM164.212 111l44.788 44.788v-44.788zM352 143h32v-30h-32zM416 143h32v-30h-32zM576 495h32v-30h-32zM640 495h32v-30h-32zM800 143h32v-30h-32zM864 143h32v-30h-32zM975 47v352h-224v161h-30v-161h-418v322h130v-128h158v128h66.79c7.522-71.826 68.426-128 142.21-128 78.85 0 143 64.15 143 143s-64.15 143-143 143c-73.784 0-134.686-56.174-142.21-128h-384.79v-352h-224v-175h30v145h130v-128h158v128h130v-322h-418v145h-30v-145h-49v-30h1024v30zM463 721h34v-98h-34zM561 623h-34v98h34zM800 849c62.308 0 113-50.692 113-113s-50.692-113-113-113-113 50.692-113 113 50.692 113 113 113zM687 369h34v-98h-34zM751 369h34v-98h-34zM239 369h34v-98h-34zM337 271h-34v98h34zM527 369h130v-128h158v128h130v-322h-418zM561 81h126v126h-126zM612.214 111l44.786 44.786v-44.786zM635.786 177l-44.786-44.786v44.786zM337 433h126v126h-126zM388.212 463l44.788 44.788v-44.788zM411.788 529l-44.788-44.788v44.788zM874.608 773.394l-21.216 21.212-69.392-69.394-37.392 37.394-21.216-21.212 58.608-58.606z" />
<glyph unicode="&#xe90a;" glyph-name="delivery-truck" d="M1024 422.187l-136.922 136.922h-119.329v160.156h-191.187v-30.029h161.157v-290.283h-546.534v290.283h353.345v30.029h-544.532v-30.029h161.157v-34.033h-129.126v-30.029h129.126v-34.033h-65.064v-30.029h65.064v-320.313h97.541c7.037-36.446 39.16-64.063 77.63-64.063 43.603 0 79.077 35.475 79.077 79.077s-35.475 79.077-79.077 79.077c-38.47 0-70.593-27.617-77.63-64.063h-67.512v98.096h546.534v-98.096h-289.283v-30.029h354.792c7.037-36.446 39.16-64.063 77.63-64.063s70.593 27.617 77.63 64.063h65.51zM336.328 304.86c27.046 0 49.048-22.003 49.048-49.048s-22.001-49.048-49.048-49.048-49.048 22.003-49.048 49.048 22.001 49.048 49.048 49.048zM874.642 529.079l98.096-98.096h-204.988v98.096zM880.86 206.764c-27.046 0-49.048 22.003-49.048 49.048s22.001 49.048 49.048 49.048 49.048-22.003 49.048-49.048-22.001-49.048-49.048-49.048zM958.49 270.827c-7.037 36.446-39.16 64.063-77.63 64.063s-70.593-27.617-77.63-64.063h-35.481v130.127h226.221v-130.127zM320.313 270.827h32.031v-30.029h-32.031zM864.845 270.827h32.031v-30.029h-32.031zM512.5 334.89h192.188v-30.029h-192.188zM784.766 382.936h64.063v-30.029h-64.063zM319.312 432.985v222.217h-94.092v-222.217zM255.249 625.173h34.033v-162.158h-34.033zM447.437 432.985v222.217h-94.092v-222.217zM383.374 625.173h34.033v-162.158h-34.033zM481.47 432.985h94.092v222.217h-94.092zM511.5 625.173h34.033v-162.158h-34.033zM609.595 655.202v-222.217h94.092v222.217zM673.658 463.015h-34.033v162.158h34.033z" />
<glyph unicode="&#xe90b;" glyph-name="delivery-truck1" d="M1024 422.187l-136.922 136.922h-119.329v160.156h-175.171v-30.029h145.142v-290.283h-546.534v290.283h369.361v30.029h-560.547v-30.029h161.157v-34.033h-129.126v-30.029h129.126v-34.033h-65.064v-30.029h65.064v-320.313h97.541c7.037-36.446 39.16-64.063 77.63-64.063 43.603 0 79.077 35.475 79.077 79.077s-35.475 79.077-79.077 79.077c-38.47 0-70.593-27.617-77.63-64.063h-67.512v98.096h546.534v-98.096h-289.283v-30.029h354.792c7.035-36.446 39.16-64.063 77.63-64.063s70.593 27.617 77.63 64.063h65.51zM336.328 304.86c27.044 0 49.048-22.003 49.048-49.048s-22.003-49.048-49.048-49.048-49.048 22.003-49.048 49.048 22.003 49.048 49.048 49.048zM874.642 529.079l98.096-98.096h-204.988v98.096zM880.86 206.764c-27.044 0-49.048 22.003-49.048 49.048s22.003 49.048 49.048 49.048 49.048-22.003 49.048-49.048-22.003-49.048-49.048-49.048zM958.49 270.827c-7.035 36.446-39.16 64.063-77.63 64.063s-70.593-27.617-77.63-64.063h-35.481v130.127h226.221v-130.127zM320.313 270.827h32.031v-30.029h-32.031zM864.845 270.827h32.031v-30.029h-32.031zM512.5 463.015v-30.029h95.093v222.217h-286.28v-222.217h159.155v30.029h-129.126v162.158h66.065v-96.094h94.092v96.094h66.065v-162.158zM481.47 559.109h-34.033v66.065h34.033zM368.36 527.077h32.031v-30.029h-32.031zM512.5 334.89h192.188v-30.029h-192.188zM784.766 382.936h64.063v-30.029h-64.063z" />
<glyph unicode="&#xe90c;" glyph-name="cargo-ship" d="M943 207v224h-64v320h-32v96h-126v-96h-245.212l117.212-117.212v-169.788h30v97h192v94h-200.788l-66 66h300.788v-290h-354v128h-96v128h-158v-128h-96v-128h-117.212l223.998-224h-251.786v-30h1024v30zM657 591h-34v34h34zM687 625h34v-34h-34zM785 591h-34v34h34zM751 817h66v-66h-66zM465 431h-98v98h34v-49h30v49h34zM337 529v-98h-34v98zM271 657h34v-49h30v49h34v-98h-98zM175 529h34v-49h30v49h34v-98h-98zM164.214 337h171.786v30h-201.788l-34 34h812.788v-34h-545v-30h545v-130h-618.786zM640 143h280v-30h-280zM104 143h504v-30h-504zM232 79h560v-30h-560zM304 303h32v-30h-32zM368 303h32v-30h-32zM432 303h32v-30h-32z" />
<glyph unicode="&#xe90d;" glyph-name="packages3" d="M784.766 623.171h32.031v-30.029h-32.031zM848.829 623.171h32.031v-30.029h-32.031zM545.533 687.234v-126.123h126.123v126.123zM620.394 657.204l-44.832-44.832v44.832zM596.795 591.14l44.832 44.832v-44.832zM720.704 270.827h32.031v-30.029h-32.031zM784.766 270.827h32.031v-30.029h-32.031zM607.593 334.89h-126.123v-126.123h126.123zM556.331 304.86l-44.832-44.832v44.832zM532.732 238.796l44.832 44.832v-44.832zM1024 174.733h-128.125v322.315h64.063v382.373h-478.467v-175.171h30.029v145.142h130.127v-128.125h158.154v128.125h130.127v-322.315h-418.409v145.142h-30.029v-145.142h-64.063v-323.536c-20.29 21.673-49.12 35.254-81.079 35.254-5.786 0-11.467-0.446-17.017-1.303v545.835h-160.156v34.033h194.19v-545.533h30.029v575.562h-254.248v-94.092h160.156v-66.065h-289.283v-30.029h289.283v-34.033h-241.236v-30.029h241.236v-34.033h-161.157v-30.029h161.157v-300.768c-37.809-17.749-64.063-56.169-64.063-100.624 0-61.266 49.843-111.109 111.109-111.109 44.455 0 82.877 26.254 100.624 64.063h587.047zM671.656 849.392h34.033v-98.096h-34.033zM769.752 751.296h-34.033v98.096h34.033zM607.593 497.048h34.033v-98.096h-34.033zM671.656 497.048h34.033v-98.096h-34.033zM577.564 497.048v-128.125h158.154v128.125h130.127v-322.315h-418.409v322.315zM336.328 46.608c-44.706 0-81.079 36.372-81.079 81.079s36.374 81.079 81.079 81.079 81.079-36.372 81.079-81.079-36.374-81.079-81.079-81.079zM993.971 110.671h-547.837c0.857 5.549 1.303 11.231 1.303 17.017s-0.446 11.467-1.303 17.017h547.837zM336.328 174.733c-25.941 0-47.046-21.105-47.046-47.046s21.105-47.046 47.046-47.046 47.046 21.105 47.046 47.046-21.105 47.046-47.046 47.046zM336.328 110.671c-9.383 0-17.017 7.633-17.017 17.017s7.633 17.017 17.017 17.017 17.017-7.633 17.017-17.017-7.633-17.017-17.017-17.017z" />
<glyph unicode="&#xe90e;" glyph-name="protected" d="M272.766 143.202h30.029v145.142h130.127v-128.125h158.154v128.125h130.127v-322.315h-418.409v145.142h-30.029v-175.171h478.467v382.373h-478.467zM462.952 288.344h34.033v-98.096h-34.033zM561.048 190.248h-34.033v98.096h34.033zM576.063 62.123h32.031v-30.029h-32.031zM640.125 62.123h32.031v-30.029h-32.031zM336.829 126.186v-126.123h126.123v126.123zM411.69 96.156l-44.832-44.832v44.832zM388.091 30.092l44.832 44.832v-44.832zM680.509 875.884l-16.704-24.954c50.399-33.735 87.319-82.428 106.508-138.031-18.49 13.737-41.372 21.879-66.125 21.879-33.573 0-63.692-14.989-84.084-38.602-4.304 50.948-13.141 97.773-25.911 136.087-8.692 26.079-18.156 45.264-27.761 59.292 23.143-4.665 45.548-12.35 67.011-23.014l13.365 26.892c-37.673 18.722-77.954 29.158-119.927 31.154v33.413h-30.029v-33.411c-160.228-7.922-288.147-140.759-288.147-302.918h30.029c0 44.706 36.372 81.079 81.079 81.079s81.079-36.374 81.079-81.079h30.029c0 39.577 28.51 72.599 66.065 79.662v-192.772h-32.031v-158.154h94.092v158.154h-32.031v192.772c37.555-7.065 66.065-40.087 66.065-79.662h30.029c0 44.706 36.372 81.079 81.079 81.079s81.079-36.374 81.079-81.079h30.029c0 101.435-50.387 195.719-134.788 252.212zM529.017 382.436h-34.033v98.096h34.033zM319.812 734.78c-24.742 0-47.614-8.136-66.101-21.861 31.283 90.28 108.634 159.225 203.801 178.558-9.587-14.022-19.031-33.18-27.707-59.212-12.77-38.313-21.607-85.139-25.911-136.087-20.39 23.613-50.509 38.602-84.082 38.602zM512 734.78c-30.053 0-57.338-12.014-77.36-31.465 11.784 121.665 49.194 193.623 77.36 193.623s65.576-71.958 77.36-193.623c-20.022 19.451-47.306 31.465-77.36 31.465z" />
<glyph unicode="&#xe90f;" glyph-name="international" d="M1024 390.156l-136.922 136.922h-119.329v160.156h-127.124v-30.029h97.095v-290.283h-546.534v290.283h118.027c-12.72-24.258-19.931-51.841-19.931-81.079 0-96.59 78.581-175.171 175.171-175.171s175.171 78.581 175.171 175.171-78.581 175.171-175.171 175.171c-54.447 0-103.171-24.972-135.324-64.063h-329.129v-30.029h161.157v-34.033h-129.126v-30.029h129.126v-34.033h-65.064v-30.029h65.064v-320.313h97.541c7.035-36.446 39.16-64.063 77.63-64.063 43.603 0 79.077 35.475 79.077 79.077s-35.475 79.077-79.077 79.077c-38.47 0-70.593-27.617-77.63-64.063h-67.512v98.096h546.534v-98.096h-289.283v-30.029h354.792c7.035-36.446 39.16-64.063 77.63-64.063s70.593 27.617 77.63 64.063h65.51zM320.343 593.142h41.799l32.031-32.031h23.235v-10.799l-23.235-23.235h-66.313c-5.521 15.329-8.548 31.839-8.548 49.048 0 5.76 0.376 11.431 1.031 17.017zM534.734 495.046l-17.017 17.017 49.048 49.048h42.053c-2.506-24.284-11.023-46.812-24.037-66.065zM479.468 720.492c20.742-2.142 40.183-8.7 57.416-18.67l-23.383-23.383v-23.235h-10.799l-23.235 23.233zM449.439 720.492v-54.491l40.828-40.828h53.264v40.828l17.956 17.956c26.015-23.433 43.543-56.113 47.332-92.815h-54.491l-79.077-79.077 47.046-47.046h35.407c-25.241-21.219-57.77-34.033-93.249-34.033-50.876 0-95.691 26.334-121.615 66.065h63.77l40.828 40.828v53.262h-40.828l-32.031 32.031h-47.396c18.030 52.457 65.29 91.437 122.257 97.321zM336.328 272.829c27.044 0 49.048-22.003 49.048-49.048s-22.003-49.048-49.048-49.048-49.048 22.003-49.048 49.048 22.003 49.048 49.048 49.048zM874.642 497.048l98.096-98.096h-204.988v98.096zM880.86 174.733c-27.046 0-49.048 22.003-49.048 49.048s22.001 49.048 49.048 49.048 49.048-22.003 49.048-49.048-22.001-49.048-49.048-49.048zM958.49 238.796c-7.035 36.446-39.16 64.063-77.63 64.063s-70.593-27.617-77.63-64.063h-35.481v130.127h226.221v-130.127zM320.313 238.796h32.031v-30.029h-32.031zM864.845 238.796h32.031v-30.029h-32.031zM512.5 302.858h192.188v-30.029h-192.188zM784.766 350.905h64.063v-30.029h-64.063z" />
<glyph unicode="&#xe910;" glyph-name="mobile" d="M447.875 286.685h32.063v-30.059h-32.063zM512 286.685h32.063v-30.059h-32.063zM576.125 286.685h32.063v-30.059h-32.063zM790.756 430.967h-55.32v400.783h-208.407v128.25h-286.56v-192.376h-128.25v-222.434h208.407v-145.284h30.059v145.284h304.595v160.313h50.098v-274.536h-16.031v-96.188h-64.125v-112.219h-274.536v145.284h-30.059v-271.53h319.624v30.059h-289.566v66.129h274.536v-23.257l64.125-64.125v-169.118h222.434v373.942zM494.967 737.566h34.067v-66.129h-34.067zM366.716 929.941h34.067v-66.129h-34.067zM270.528 929.941h66.129v-96.188h94.184v96.188h66.129v-162.317h-226.442zM238.466 737.566h34.067v-66.129h-34.067zM142.278 737.566h66.129v-96.188h94.184v96.188h66.129v-162.317h-226.442zM625.221 575.249h-226.442v162.317h66.129v-96.188h94.184v96.188h66.129zM655.28 735.562v32.063h-128.25v34.067h178.348v-66.129zM881.722-33.941h-162.317v151.508l-64.125 64.125v123.028h34.067v-81.159h30.059v177.346h58.903l103.414-103.414zM287.562 831.75h32.063v-30.059h-32.063zM159.311 639.374h32.063v-30.059h-32.063zM415.812 639.374h32.063v-30.059h-32.063z" />
<glyph unicode="&#xe911;" glyph-name="food-delivery" d="M416 49c25.916 0 47 21.084 47 47s-21.084 47-47 47-47-21.084-47-47 21.084-47 47-47zM416 113c9.372 0 17-7.626 17-17s-7.628-17-17-17-17 7.626-17 17 7.628 17 17 17zM800 49c25.916 0 47 21.084 47 47s-21.084 47-47 47-47-21.084-47-47 21.084-47 47-47zM800 113c9.372 0 17-7.626 17-17s-7.628-17-17-17-17 7.626-17 17 7.628 17 17 17zM528 335h32v-30h-32zM592 335h32v-30h-32zM656 335h32v-30h-32zM608 527c-98.448 0-189.304-53.526-237.118-139.692l26.23-14.556c42.528 76.638 123.336 124.248 210.888 124.248zM96 367h144v-30h-144zM48 431h224v-30h-224zM0 495h304v-30h-304zM352 593h96v30h-16c-18.196 0-33 14.804-33 33s14.804 33 33 33h368c34.738 0 63 28.262 63 63s-28.262 63-63 63h-270c-18.196 0-33 14.804-33 33s14.804 33 33 33h48v30h-128c-34.738 0-63-28.262-63-63s28.262-63 63-63h270c18.196 0 33-14.804 33-33s-14.804-33-33-33h-368c-34.738 0-63-28.262-63-63s28.262-63 63-63zM417 848c0 18.196 14.804 33 33 33h26.362c-5.93-9.604-9.362-20.908-9.362-33s3.432-23.396 9.362-33h-26.362c-18.196 0-33 14.804-33 33zM773.638 785h26.362c18.196 0 33-14.804 33-33s-14.804-33-33-33h-26.362c5.93 9.604 9.362 20.908 9.362 33s-3.432 23.396-9.362 33zM352 689h26.362c-5.93-9.604-9.362-20.908-9.362-33s3.432-23.396 9.362-33h-26.362c-18.196 0-33 14.804-33 33s14.804 33 33 33zM1024 271h-81.344c-3.712 85.074-38.932 164.22-100.156 224.238l-21-21.424c55.418-54.328 87.448-125.868 91.136-202.814h-432.636v-30h475.786l-34-34h-627.574l-34 34h187.788v30h-144.628c7.848 161.238 141.48 290 304.628 290 66.626 0 129.912-21.090 183.020-60.992l18.020 23.984c-46.878 35.22-100.97 57.086-158.374 64.326 2.774 5.992 4.334 12.656 4.334 19.68 0 25.916-21.084 47-47 47s-47-21.084-47-47c0-7.034 1.564-13.706 4.346-19.704-159.79-20.396-284.752-153.806-291.992-317.296h-81.354v-30h25.786l64.002-64h58.434c-21.652-20.268-35.22-49.072-35.22-81 0-61.206 49.796-111 111-111s111 49.794 111 111c0 31.928-13.568 60.732-35.22 81h232.44c-21.652-20.268-35.22-49.072-35.22-81 0-61.206 49.794-111 111-111s111 49.794 111 111c0 31.928-13.568 60.732-35.22 81h58.434l64 64h25.784zM591 608c0 9.374 7.628 17 17 17s17-7.626 17-17-7.628-17-17-17-17 7.626-17 17zM497 96c0-44.664-36.336-81-81-81s-81 36.336-81 81 36.336 81 81 81 81-36.336 81-81zM881 96c0-44.664-36.336-81-81-81s-81 36.336-81 81 36.336 81 81 81 81-36.336 81-81z" />
<glyph unicode="&#xe912;" glyph-name="24-hours-delivery" d="M928.144 682.729l-21.445-21.021c56.279-57.41 87.271-133.306 87.271-213.709 0-168.342-136.956-305.298-305.298-305.298s-305.298 136.956-305.298 305.298 136.956 305.298 305.298 305.298c66.677 0 130.017-21.105 183.171-61.030l18.036 24.011c-58.397 43.863-127.973 67.047-201.206 67.047-184.901 0-335.327-150.429-335.327-335.327s150.427-335.327 335.327-335.327 335.327 150.429 335.327 335.327c0 88.312-34.043 171.674-95.856 234.729zM959.937 448c0 149.576-121.689 271.265-271.265 271.265s-271.265-121.689-271.265-271.265c0-51.831 14.67-102.22 42.425-145.72 27.008-42.331 65.1-76.311 110.154-98.266l13.153 26.994c-40.075 19.529-73.96 49.759-97.992 87.423-24.672 38.666-37.711 83.47-37.711 129.569 0 133.018 108.218 241.236 241.236 241.236s241.236-108.218 241.236-241.236-108.218-241.236-241.236-241.236c-25.781 0-51.146 4.042-75.39 12.010l-9.377-28.528c27.275-8.965 55.794-13.511 84.767-13.511 149.576 0 271.265 121.689 271.265 271.265zM545.533 463.015v-94.092h127.124v30.029h-97.095v34.033h96.094v94.092h-127.124v-30.029h97.095v-34.033zM705.689 528.078v-95.093h112.109v-65.064h30.029v160.156h-30.029v-65.064h-82.080v65.064zM673.658 254.811h30.029v-30.029h-30.029zM673.658 671.218h30.029v-30.029h-30.029zM881.861 463.015h30.029v-30.029h-30.029zM465.455 463.015h30.029v-30.029h-30.029zM128.125 398.952h192.188v-30.029h-192.188zM48.047 463.015h256.25v-30.029h-256.25zM0 527.077h320.313v-30.029h-320.313z" />
<glyph unicode="&#xe913;" glyph-name="cargo" d="M495.969 78.278h32.063v-30.059h-32.063zM560.094 78.278h32.063v-30.059h-32.063zM431.843 78.278h32.063v-30.059h-32.063zM943.843 255.624h-30.059v-225.44h-865.691v-94.184h927.812v94.184h-32.063zM945.847-33.941h-867.695v34.067h867.695zM144.282 414.935v-318.622h94.184v318.622zM208.407 126.372h-34.067v258.505h34.067zM785.534 414.935v-318.622h94.184v318.622zM849.659 126.372h-34.067v258.505h34.067zM657.284 414.935v-318.622h94.184v318.622zM721.409 126.372h-34.067v258.505h34.067zM623.217 287.687v127.249h-94.184v-318.622h94.184v159.311h-30.059v-129.252h-34.067v258.505h34.067v-97.19zM494.967 414.935h-94.184v-318.622h94.184zM464.908 126.372h-34.067v258.505h34.067zM272.532 414.935v-318.622h94.184v318.622zM336.658 126.372h-34.067v258.505h34.067zM879.718 543.186v64.125h-75.796l-247.533 116.486c11.561 11.448 18.735 27.315 18.735 44.83 0 29.628-20.52 54.557-48.094 61.316v19.843h48.094v110.215h-126.247v-110.215h48.094v-48.094h15.029c18.232 0 33.065-14.833 33.065-33.065s-14.833-33.065-33.065-33.065-33.065 14.833-33.065 33.065h-30.059c0-17.514 7.174-33.381 18.735-44.83l-247.533-116.486h-75.796v-64.125h-96.188v-94.184h32.063v-385.753h30.059v385.753h803.569v-161.315h30.059v161.315h32.063v94.184zM478.935 929.941h66.129v-50.098h-66.129zM849.659 577.252v-34.067h-34.067v34.067zM512 705.503c3.649 0 7.222 0.329 10.703 0.926l262.831-123.686v-39.557h-547.068v39.557l262.831 123.686c3.481-0.597 7.054-0.926 10.703-0.926zM174.341 577.252h34.067v-34.067h-34.067zM945.847 479.061h-867.695v34.067h867.695z" />
<glyph unicode="&#xe914;" glyph-name="packages4" d="M480.469 238.796h32.031v-30.029h-32.031zM736.719 446.999h32.031v-30.029h-32.031zM608.594 639.187h32.031v-30.029h-32.031zM480.469 446.999h32.031v-30.029h-32.031zM1024 190.749h-304.297v162.158h66.065v-96.094h94.092v96.094h66.065v-129.126h30.029v351.343h-128.125v192.188h-286.28v-192.188h-128.125v-95.093h30.029v65.064h66.065v-96.094h94.092v96.094h66.065v-162.158h-226.221v65.064h-30.029v-250.364c-19.001 34.069-55.392 57.176-97.095 57.176-5.786 0-11.467-0.448-17.017-1.303v545.835h-160.156v34.033h194.19v-545.533h30.029v575.562h-254.248v-94.092h160.156v-66.065h-289.283v-30.029h289.283v-34.033h-241.236v-30.029h241.236v-34.033h-161.157v-30.029h161.157v-300.768c-37.809-17.747-64.063-56.169-64.063-100.624 0-61.266 49.843-111.109 111.109-111.109 44.455 0 82.877 26.254 100.624 64.063h587.047zM849.83 286.843h-34.033v66.065h34.033zM815.797 545.095h34.033v-66.065h-34.033zM687.672 737.283h34.033v-66.065h-34.033zM591.578 737.283h66.065v-96.094h94.092v96.094h66.065v-162.158h-226.221zM593.58 479.030h-34.033v66.065h34.033zM719.703 545.095h66.065v-96.094h94.092v96.094h66.065v-162.158h-226.221zM559.546 352.907h34.033v-66.065h-34.033zM529.517 352.907v-96.094h94.092v96.094h66.065v-162.158h-226.221v162.158zM336.328 62.624c-44.706 0-81.079 36.372-81.079 81.079s36.374 81.079 81.079 81.079 81.079-36.372 81.079-81.079-36.374-81.079-81.079-81.079zM993.971 126.686h-547.837c0.857 5.549 1.303 11.231 1.303 17.017s-0.446 11.467-1.303 17.017h547.837zM336.328 190.749c-25.941 0-47.046-21.105-47.046-47.046s21.105-47.046 47.046-47.046 47.046 21.105 47.046 47.046-21.105 47.046-47.046 47.046zM336.328 126.686c-9.383 0-17.017 7.635-17.017 17.017s7.633 17.017 17.017 17.017 17.017-7.635 17.017-17.017-7.633-17.017-17.017-17.017zM736.719 254.811h32.031v-30.029h-32.031z" />
<glyph unicode="&#xe915;" glyph-name="packages5" d="M800.564 270.654h32.063v-30.059h-32.063zM864.689 270.654h32.063v-30.059h-32.063zM561.096 208.532h126.247v126.247h-126.247zM612.41 238.591l44.874 44.874v-44.874zM636.028 304.72l-44.874-44.874v44.874zM576.125 623.342h32.063v-30.059h-32.063zM640.25 623.342h32.063v-30.059h-32.063zM336.658 687.468v-126.247h126.247v126.247zM411.59 657.409l-44.874-44.874v44.874zM387.972 591.28l44.874 44.874v-44.874zM351.687 270.654h32.063v-30.059h-32.063zM415.812 270.654h32.063v-30.059h-32.063zM112.219 334.779v-126.247h126.247v126.247zM187.152 304.72l-44.874-44.874v44.874zM163.533 238.591l44.874 44.874v-44.874zM975.906 174.466v352.689h-224.438v352.689h-478.935v-175.342h30.059v145.284h130.254v-128.25h158.309v128.25h130.254v-322.63h-418.818v145.284h-30.059v-145.284h-224.438v-319.624h30.059v289.566h130.254v-128.25h158.309v128.25h130.254v-322.63h-496.971v-158.309h126.247v64.125h322.63v-64.125h126.247v64.125h322.63v-64.125h126.247v158.309zM462.904 849.785h34.067v-98.192h-34.067zM561.096 751.593h-34.067v98.192h34.067zM687.342 497.096h34.067v-98.192h-34.067zM751.468 497.096h34.067v-98.192h-34.067zM238.466 497.096h34.067v-98.192h-34.067zM336.658 398.904h-34.067v98.192h34.067zM527.029 497.096h130.254v-128.25h158.309v128.25h130.254v-322.63h-418.818zM993.941 144.407v-34.067h-963.883v34.067zM96.188 46.215h-66.129v34.067h66.129zM545.065 46.215h-66.129v34.067h66.129zM927.812 46.215v34.067h66.129v-34.067z" />
<glyph unicode="&#xe916;" glyph-name="warehouse" d="M432 733.42h32v-30h-32zM496 733.42h32v-30h-32zM560 733.42h32v-30h-32zM111 575.42h545v30h-545v34h802v-34h-225v-30h225v-417h30v504.382l-431 265.232-431-265.232v-504.382h30zM875.004 669.42h-726.008l363.004 223.388zM943-2.034v127.454h-64v128h-32v256h-670v-256h-32v-128h-64v-127.454h-81v-30h448v30h-81v65.454h290v-65.454h-81v-30h448v30zM913-2.034h-98v97.454h34v-49h30v49h34zM849 125.42h-98v98h34v-49h30v49h34zM817 381.42h-610v34h610zM817 351.42v-34h-610v34zM817 479.42v-34h-610v34zM207 287.42h610v-34h-96v-128h-34v96h-158v-128h-34v128h-158v-96h-34v128h-96zM175 223.42h34v-49h30v49h34v-98h-98zM111 95.42h34v-49h30v49h34v-97.454h-98zM239-2.034v97.454h34v-49h30v49h34v-97.454zM367 191.42h34v-49h30v49h34v-98h-98zM559 93.42v98h34v-49h30v49h34v-98zM687 95.42h34v-49h30v49h34v-97.454h-98z" />
<glyph unicode="&#xe917;" glyph-name="warehouse1" d="M512.5 717.958h32.031v-30.029h-32.031zM576.563 717.958h32.031v-30.029h-32.031zM640.626 717.958h32.031v-30.029h-32.031zM384.375 77.332h32.031v-30.029h-32.031zM64.063 141.395h160.156v-30.029h-160.156zM304.297 189.442h64.063v-30.029h-64.063zM1024 366.615v280.656l-431.421 265.489-431.421-265.489v-121.501h-161.157v-30.029h257.251v-290.283h-257.251v-30.029h257.251v-98.096h-257.251v-30.029h322.761c7.037-36.446 39.16-64.063 77.63-64.063s70.593 27.617 77.63 64.063h545.979v287.281h-30.029v-257.251h-66.065v416.407h-640.626v32.031h-96.094v34.033h209.204v30.029h-209.204v34.033h802.784v-34.033h-561.548v-30.029h561.548v-193.189zM400.391 13.269c-27.046 0-49.048 22.001-49.048 49.048s22.001 49.048 49.048 49.048 49.048-22.001 49.048-49.048-22.001-49.048-49.048-49.048zM400.391 141.395c-38.47 0-70.593-27.617-77.63-64.063h-35.481v130.127h226.221v-130.127h-35.481c-7.037 36.444-39.16 64.063-77.63 64.063zM287.281 237.488v98.096h106.892l98.096-98.096zM735.718 254.505v49.048h34.033v-98.096h-98.096v98.096h34.033v-49.048zM833.814 77.332h-98.096v98.096h34.033v-49.048h30.029v49.048h34.033zM671.656 126.38v49.048h34.033v-98.096h-98.096v98.096h34.033v-49.048zM863.844 77.332v128.125h-64.063v128.125h-158.154v-128.125h-64.063v-128.125h-34.033v151.36l-136.922 136.922h-119.329v34.033h610.596v-322.315zM897.877 463.709v-34.033h-610.596v34.033zM955.936 653.895h-726.716l363.359 223.604z" />
<glyph unicode="&#xe918;" glyph-name="shipping1" d="M495.969 358.325h32.063v-30.059h-32.063zM560.094 358.325h32.063v-30.059h-32.063zM431.843 358.325h32.063v-30.059h-32.063zM334.654 406.419v226.442h64.125v158.309h-96.188v64.125h-32.063v81.159h-30.059v-81.159h-32.063v-64.125h-96.188v-158.309h64.125v-193.378h30.059v129.252h34.067v-162.317h-240.47v-446.873h1024v446.873zM240.47 696.986v-34.067h-34.067v34.067zM270.528 696.986h34.067v-34.067h-34.067zM334.654 662.92v34.067h34.067v-34.067zM238.466 825.237h34.067v-34.067h-34.067zM368.72 761.112v-34.067h-226.442v34.067zM142.278 696.986h34.067v-34.067h-34.067zM206.403 632.861h98.192v-34.067h-98.192zM270.528 568.736h34.067v-162.317h-34.067zM270.528 38.701v49.096h34.067v-98.192h-98.192v98.192h34.067v-49.096zM366.716 166.951v49.096h34.067v-98.192h-98.192v98.192h34.067v-49.096zM462.904 38.701v49.096h34.067v-98.192h-98.192v98.192h34.067v-49.096zM591.155 38.701v49.096h34.067v-98.192h-98.192v98.192h34.067v-49.096zM687.342 166.951v49.096h34.067v-98.192h-98.192v98.192h34.067v-49.096zM783.53 38.701v49.096h34.067v-98.192h-98.192v98.192h34.067v-49.096zM689.346 87.796v-98.192h-34.067v98.192zM368.72 87.796v-98.192h-34.067v98.192zM993.941-10.395h-66.129v145.284h-30.059v-145.284h-50.098v128.25h-96.188v128.25h-158.309v-128.25h-162.317v128.25h-158.309v-128.25h-96.188v-128.25h-50.098v290.568h771.507v-113.221h30.059v143.28h-831.624v-320.626h-66.129v386.755h963.883zM614.931 472.548h97.733l64.125 128.25h155.245l-94.184 94.184h-61.061l-64.125 128.25h-97.733l64.125-128.25h-88.904v64.125h-94.184v-158.309h183.088zM694.086 502.607h-30.518l49.096 98.192h30.518zM663.566 793.174h30.518l49.096-98.192h-30.518zM560.094 630.857h-34.067v98.192h34.067zM590.153 664.924h235.247l34.067-34.067h-269.314z" />
<glyph unicode="&#xe919;" glyph-name="post-office" d="M496 431.034h32v-30h-32zM560 431.034h32v-30h-32zM432 431.034h32v-30h-32zM623 751.034h-222v-158h222zM558.458 721.034l-46.458-30.974-46.46 30.972h92.918zM431 623.034v84.972l81-54 81 54v-84.972zM975 110.966v128.066h-96v128h-158v-128h-66v128h-286v-128h-66v128h-158v-128h-34v226h802v-193h30v193h32v286h-288v64h-350v-64h-288v-286h32v-226h-32v-128.066h-49v-30h1024v30zM657 785.034v-193h30v129h258v-162h-578v226zM79 529.034h129v30h-129v162h258v-162h-97v-30h705v-34h-866zM945 110.966h-98v98.066h34v-49h30v49h34zM817 209.034v-98.066h-34v98.066zM751 337.034h34v-49h30v49h34v-98h-98zM689 209.034v-49h30v49h34v-98.066h-98v98.066zM527 273.034h98v-162.066h-98zM497 110.966h-98v162.066h98zM625 337.034v-34h-226v34zM369 110.966h-98v98.066h34v-49h30v49h34zM241 209.034v-98.066h-34v98.066zM175 337.034h34v-49h30v49h34v-98h-98zM79 209.034h34v-49h30v49h34v-98.066h-98z" />
<glyph unicode="&#xe91a;" glyph-name="food-delivery1" d="M1024 167.726c0 76.457-60.257 139.104-135.773 142.952l-78.919 98.648c2.466-0.232 4.963-0.364 7.489-0.364h15.015v158.154h-15.015c-37.368 0-68.745-26.065-76.959-60.962l-28.932 28.93h-54.265v-30.029h41.829l39.25-39.252v-185.968h30.029v133.368l84.216-105.271c-60.339-12.418-106.932-62.931-113.455-125.192h-177.964c-53.538 0-97.095 43.557-97.095 97.095s43.557 97.095 97.095 97.095h15.015v94.092h-286.28v-94.092h42.828l-66.227-66.227c-75.974-3.351-136.758-66.191-136.758-142.978v-15.015h65.51c7.037-36.446 39.16-64.063 77.63-64.063s70.593 27.617 77.63 64.063h453.335c7.035-36.446 39.16-64.063 77.63-64.063s70.593 27.617 77.63 64.063h65.51zM319.312 406.96v34.033h226.221v-34.033h-183.391zM272.266 118.678c-21.809 0-40.331 14.31-46.688 34.033h93.377c-6.36-19.723-24.88-34.033-46.69-34.033zM160.148 182.741c7.367 55.298 54.84 98.096 112.117 98.096s104.752-42.798 112.117-98.096zM414.623 182.741c-6.386 61.016-51.272 110.726-109.853 124.381l69.808 69.808h104.040c-27.615-23.337-45.196-58.193-45.196-97.095s17.581-73.758 45.196-97.095zM801.783 534.737v-93.395c-19.725 6.356-34.033 24.888-34.033 46.698s14.308 40.341 34.033 46.698zM880.86 118.678c-21.809 0-40.331 14.31-46.688 34.033h93.377c-6.358-19.723-24.88-34.033-46.69-34.033zM768.743 182.741c7.365 55.298 54.838 98.096 112.117 98.096s104.752-42.798 112.117-98.096zM64.063 422.976h192.188v-30.029h-192.188zM32.031 487.038h192.188v-30.029h-192.188zM0 551.101h192.188v-30.029h-192.188zM208.203 230.788h32.031v-30.029h-32.031zM240.235 262.819h32.031v-30.029h-32.031zM816.798 230.788h32.031v-30.029h-32.031zM848.829 262.819h32.031v-30.029h-32.031zM279.002 521.071h274.81l32.031 64.063h22.75v30.029h-49.839c-6.078 58.027-46.97 105.821-101.349 122.111 3.842 6.813 6.046 14.666 6.046 23.030 0 25.941-21.105 47.046-47.046 47.046s-47.046-21.105-47.046-47.046c0-8.364 2.204-16.218 6.046-23.030-54.379-16.29-95.271-64.085-101.349-122.111h-49.839v-30.029h22.752zM535.253 551.101h-237.692l-17.017 34.033h271.725zM399.39 760.305c0 9.383 7.633 17.017 17.017 17.017s17.017-7.633 17.017-17.017-7.633-17.017-17.017-17.017-17.017 7.633-17.017 17.017zM416.407 713.259c57.276 0 104.712-42.802 112.083-98.096h-224.167c7.371 55.294 54.808 98.096 112.083 98.096z" />
<glyph unicode="&#xe91b;" glyph-name="order1" d="M1024 278.046l-136.922 136.922h-119.329v160.156h-96.094v256.25h-96.094v32.031h-222.217v-32.031h-96.094v-159.155h30.029v129.126h66.065v-64.063h222.217v64.063h66.065v-482.471h-354.346v321.314h-30.029v-65.064h-257.251v-30.029h161.157v-34.033h-129.126v-30.029h129.126v-34.033h-65.064v-30.029h65.064v-320.313h97.541c7.037-36.446 39.16-64.063 77.63-64.063 43.603 0 79.077 35.475 79.077 79.077s-35.475 79.077-79.077 79.077c-38.47 0-70.593-27.617-77.63-64.063h-67.512v98.096h546.534v-98.096h-289.283v-30.029h354.792c7.037-36.446 39.16-64.063 77.63-64.063s70.593 27.617 77.63 64.063h65.51zM545.533 767.312h-162.158v66.065h162.158zM336.328 160.719c27.046 0 49.048-22.001 49.048-49.048s-22.001-49.048-49.048-49.048-49.048 22.001-49.048 49.048 22.001 49.048 49.048 49.048zM874.642 384.938l98.096-98.096h-204.988v98.096zM191.187 254.811v290.283h66.065v-256.25h414.405v256.25h66.065v-290.283zM880.86 62.624c-27.046 0-49.048 22.001-49.048 49.048s22.001 49.048 49.048 49.048 49.048-22.001 49.048-49.048-22.001-49.048-49.048-49.048zM958.49 126.686c-7.037 36.446-39.16 64.063-77.63 64.063s-70.593-27.617-77.63-64.063h-35.481v130.127h226.221v-130.127zM320.313 126.686h32.031v-30.029h-32.031zM864.845 126.686h32.031v-30.029h-32.031zM512.5 190.749h192.188v-30.029h-192.188zM784.766 238.796h64.063v-30.029h-64.063zM415.406 703.249h-94.092v-94.092h94.092zM385.376 639.187h-34.033v34.033h34.033zM448.438 639.187h112.109v-30.029h-112.109zM448.438 703.249h144.141v-30.029h-144.141zM321.314 481.032h94.092v94.092h-94.092zM351.343 545.095h34.033v-34.033h-34.033zM448.438 575.124h144.141v-30.029h-144.141zM448.438 511.062h112.109v-30.029h-112.109zM321.314 352.907h94.092v94.092h-94.092zM351.343 416.97h34.033v-34.033h-34.033zM448.438 446.999h144.141v-30.029h-144.141zM448.438 382.936h112.109v-30.029h-112.109z" />
<glyph unicode="&#xe91c;" glyph-name="mobile1" d="M383.75 286.685h32.063v-30.059h-32.063zM447.875 286.685h32.063v-30.059h-32.063zM512 286.685h32.063v-30.059h-32.063zM726.631 430.967h-55.32v400.783h-80.157v96.188h-96.188v32.063h-222.434v-32.063h-96.188v-159.311h30.059v129.252h66.129v-64.125h222.434v64.125h66.129v-482.943h-354.693v321.628h-30.059v-351.687h80.157v-288.564h319.624v30.059h-289.566v66.129h274.536v-23.257l64.125-64.125v-169.118h222.434v373.942zM464.908 863.812h-162.317v66.129h162.317zM591.155 801.691h50.098v-66.129h-50.098zM561.096 222.56h-274.536v162.317h304.595v320.626h50.098v-274.536h-16.031v-96.188h-64.125zM817.597-33.941h-162.317v151.508l-64.125 64.125v123.028h34.067v-81.159h30.059v177.346h58.903l103.414-103.414zM334.654 799.687h-94.184v-94.184h94.184zM304.595 735.562h-34.067v34.067h34.067zM367.718 735.562h112.219v-30.059h-112.219zM367.718 799.687h144.282v-30.059h-144.282zM240.47 577.252h94.184v94.184h-94.184zM270.528 641.378h34.067v-34.067h-34.067zM367.718 671.436h144.282v-30.059h-144.282zM367.718 607.311h112.219v-30.059h-112.219zM240.47 449.002h94.184v94.184h-94.184zM270.528 513.127h34.067v-34.067h-34.067zM367.718 543.186h144.282v-30.059h-144.282zM367.718 479.061h112.219v-30.059h-112.219z" />
<glyph unicode="&#xe91d;" glyph-name="box" d="M512 62.247h32.063v-30.059h-32.063zM576.125 62.247h32.063v-30.059h-32.063zM272.532 126.372v-126.247h126.247v126.247zM347.465 96.313l-44.874-44.874v44.874zM323.847 30.184l44.874 44.874v-44.874zM785.534-33.941h-98.192v397.564l74.934-74.934h170.76l-126.247 126.247h-589.578l-126.247-126.247h117.441v-145.284h30.059v145.284h343.884l74.934 74.934v-397.564h-418.818v145.284h-30.059v-175.342h607.186v319.624h-30.059zM794.339 384.877l66.129-66.129h-85.741l-66.129 66.129zM569.901 318.748h-406.37l66.129 66.129h406.368zM512 481.065c132.044 0 239.468 107.424 239.468 239.468s-107.424 239.468-239.468 239.468-239.468-107.424-239.468-239.468 107.424-239.468 239.468-239.468zM512 929.941c115.47 0 209.409-93.941 209.409-209.409s-93.939-209.409-209.409-209.409-209.409 93.941-209.409 209.409 93.939 209.409 209.409 209.409zM512 545.19c96.685 0 175.342 78.658 175.342 175.342s-78.658 175.342-175.342 175.342-175.342-78.658-175.342-175.342 78.658-175.342 175.342-175.342zM496.971 865.039v-32.287h30.059v32.287c68.133-7.034 122.443-61.346 129.477-129.477h-32.287v-30.059h32.287c-7.034-68.131-61.344-122.443-129.477-129.477v32.287h-30.059v-32.287c-68.133 7.034-122.443 61.346-129.479 129.477h32.289v30.059h-32.289c7.036 68.131 61.346 122.443 129.479 129.477zM570.721 683.067l-43.691 43.689v73.932h-30.059v-86.381l52.497-52.499z" />
<glyph unicode="&#xe91e;" glyph-name="global" d="M512 831.75c-220.441 0-399.781-179.34-399.781-399.781 0-16.695 1.040-33.501 3.092-49.954l29.828 3.717c-1.285 10.294-2.102 20.743-2.521 31.205h130.098c0.491-22.294 2.080-44.423 4.733-66.129h-149.199v-192.376h-128.25v-222.434h543.061v97.404c97.789 7.509 188.608 50.27 257.058 121.413 72.007 74.84 111.662 173.268 111.662 277.153 0 220.441-179.34 399.781-399.781 399.781zM817.915 639.374h-100.801c-9.362 25.881-20.534 50.122-33.429 72.229-16.843 28.872-35.878 52.903-56.52 71.7 78.353-25.746 145.234-77.006 190.751-143.929zM751.285 446.998c-1.246 57.166-9.581 112.265-24.315 162.317h109.358c26.654-48.551 42.707-103.699 45.064-162.317zM382.748 128.376h34.067v-66.129h-34.067zM414.81 158.434v66.129h82.16v-66.129zM543.061 66.395v92.040h-16.031v66.129h157.973c-6.593-16.977-14.033-33.109-22.282-48.222-32.457-59.462-74.447-97.837-119.66-109.947zM527.029 254.622v162.317h194.195c-1.319-57.382-10.162-112.718-25.706-162.317zM527.029 446.998v162.317h168.545c15.526-49.489 24.34-104.715 25.648-162.317zM328.425 609.315h168.545v-162.317h-194.193c1.309 57.603 10.122 112.828 25.648 162.317zM272.713 446.998h-130.104c2.357 58.618 18.41 113.766 45.064 162.317h109.358c-14.735-50.052-23.069-105.151-24.317-162.317zM527.029 800.731c48.831-6.226 94.769-42.697 130.691-104.276 10.29-17.64 19.422-36.76 27.329-57.081h-158.021zM496.971 800.731v-161.357h-158.021c7.907 20.324 17.039 39.441 27.329 57.081 35.922 61.578 81.86 98.050 130.691 104.276zM396.837 783.303c-20.642-18.797-39.677-42.83-56.52-71.7-12.895-22.107-24.067-46.349-33.431-72.229h-100.801c45.517 66.923 112.398 118.183 190.753 143.929zM302.785 416.939h194.185v-162.317h-82.16v96.188h-107.085c-2.779 21.662-4.427 43.808-4.94 66.129zM254.497 320.751h34.067v-66.129h-34.067zM158.309 320.751h66.129v-96.188h94.184v96.188h66.129v-162.317h-226.442zM126.247 128.376h34.067v-66.129h-34.067zM30.059 128.376h66.129v-96.188h94.184v96.188h66.129v-162.317h-226.442zM513.002-33.941h-226.442v162.317h66.129v-96.188h94.184v96.188h66.129zM778.458 175.66c-42.629-44.307-94.643-76.698-151.676-95.266 23.141 20.953 44.21 48.368 62.322 81.545 10.607 19.432 19.943 40.423 27.963 62.624h67.466v30.059h-57.633c14.755 50.16 23.131 105.354 24.388 162.317h130.112c-3.619-90.505-39.834-175.691-102.941-241.279zM175.342 222.56h32.063v-30.059h-32.063zM47.092 30.184h32.063v-30.059h-32.063zM303.593 30.184h32.063v-30.059h-32.063zM912.783 960c-61.326 0-111.217-49.891-111.217-111.217 0-103.047 98.681-170.018 102.881-172.818l8.336-5.557 8.336 5.557c4.2 2.799 102.881 69.77 102.881 172.818 0 61.326-49.891 111.217-111.217 111.217zM949.985 742.946c-14.158-16.626-28.494-28.924-37.203-35.772-8.711 6.851-23.045 19.147-37.203 35.772-29.167 34.251-43.956 69.86-43.956 105.837 0 44.751 36.407 81.159 81.159 81.159s81.159-36.407 81.159-81.159c0-35.976-14.789-71.586-43.956-105.837zM912.783 895.875c-25.967 0-47.092-21.125-47.092-47.092s21.125-47.092 47.092-47.092 47.092 21.125 47.092 47.092-21.125 47.092-47.092 47.092zM912.783 831.75c-9.392 0-17.033 7.641-17.033 17.033s7.641 17.033 17.033 17.033 17.033-7.641 17.033-17.033-7.641-17.033-17.033-17.033z" />
<glyph unicode="&#xe91f;" glyph-name="time" d="M911.781 831.75v64.125h-94.184v-64.125h-66.129v64.125h-94.184v-64.125h-66.129v64.125h-94.184v-64.125h-66.129v64.125h-94.184v-64.125h-112.219v-383.75h30.059v193.378h739.444v-225.44h30.059v415.812zM847.656 865.816h34.067v-98.192h-34.067zM687.342 865.816h34.067v-98.192h-34.067zM527.029 865.816h34.067v-98.192h-34.067zM366.716 865.816h34.067v-98.192h-34.067zM993.941 671.436h-739.444v130.254h82.16v-64.125h94.184v64.125h66.129v-64.125h94.184v64.125h66.129v-64.125h94.184v64.125h66.129v-64.125h94.184v64.125h82.16zM993.941 158.434h-417.816v-30.059h447.875v255.499h-30.059zM175.342 286.685h32.063v-30.059h-32.063zM47.092 94.309h32.063v-30.059h-32.063zM303.593 94.309h32.063v-30.059h-32.063zM799.562 320.751h160.313v286.56h-510.998v-128.25h-160.313v-64.125h-160.313v-192.376h-128.25v-222.434h543.061v192.376h256.501zM799.562 577.252h130.254v-98.192h-130.254zM799.562 449.002h130.254v-98.192h-130.254zM318.622 449.002h130.254v-98.192h-34.067v64.125h-96.188zM414.81 222.56v98.192h34.067v-98.192zM416.814 192.501v-66.129h-34.067v66.129zM254.497 384.877h34.067v-66.129h-34.067zM158.309 384.877h66.129v-96.188h94.184v96.188h66.129v-162.317h-226.442zM126.247 192.501h34.067v-66.129h-34.067zM256.501 30.184h-226.442v162.317h66.129v-96.188h94.184v96.188h66.129zM513.002 30.184h-226.442v162.317h66.129v-96.188h94.184v96.188h66.129zM609.19 222.56h-130.254v98.192h130.254zM609.19 350.81h-130.254v98.192h130.254zM609.19 479.061h-130.254v98.192h130.254zM769.503 222.56h-130.254v98.192h130.254zM769.503 350.81h-130.254v98.192h130.254zM769.503 479.061h-130.254v98.192h130.254z" />
<glyph unicode="&#xe920;" glyph-name="delivery1" d="M415.812 575.249h32.063v-30.059h-32.063zM287.562 382.873h32.063v-30.059h-32.063zM544.063 382.873h32.063v-30.059h-32.063zM783.53 511.123h-128.25v192.376h-286.56v-192.376h-128.25v-222.434h543.061zM623.217 481.065h34.067v-66.129h-34.067zM494.967 673.44h34.067v-66.129h-34.067zM398.779 673.44h66.129v-96.188h94.184v96.188h66.129v-162.317h-226.442zM366.716 481.065h34.067v-66.129h-34.067zM270.528 481.065h66.129v-96.188h94.184v96.188h66.129v-162.317h-226.442zM753.472 318.748h-226.442v162.317h66.129v-96.188h94.184v96.188h66.129zM431.843 206.528h32.063v-30.059h-32.063zM495.969 206.528h32.063v-30.059h-32.063zM560.094 206.528h32.063v-30.059h-32.063zM110.215 801.691h803.569v-578.129h30.059v608.188h-863.687v-608.188h30.059zM879.718 767.624h-735.436v-543.061h735.436zM849.659 254.622h-675.319v482.943h675.319zM666.089 190.497l-32.063-32.063h-244.053l-32.063 32.063h-357.911v-126.247h1024v126.247zM993.941 94.309h-963.883v66.129h315.404l32.063-32.063h268.951l32.063 32.063h315.402z" />
<glyph unicode="&#xe921;" glyph-name="delivery-truck2" d="M336.328 623.171h32.031v-30.029h-32.031zM464.454 430.983h32.031v-30.029h-32.031zM208.203 430.983h32.031v-30.029h-32.031zM1024 390.156l-136.922 136.922h-149.358v-160.156h-290.283v162.158h66.065v-96.094h94.092v96.094h66.065v-129.126h30.029v159.155h-128.125v192.188h-286.28v-159.155h30.029v129.126h66.065v-96.094h94.092v96.094h66.065v-162.158h-513.501v-30.029h129.126v-34.033h-65.064v-30.029h65.064v-256.25h97.541c7.037-36.446 39.16-64.063 77.63-64.063 43.603 0 79.077 35.475 79.077 79.077s-35.475 79.077-79.077 79.077c-38.47 0-70.593-27.617-77.63-64.063h-67.512v98.096h546.534v-98.096h-289.283v-30.029h354.792c7.037-36.446 39.16-64.063 77.63-64.063s70.593 27.617 77.63 64.063h65.51zM449.439 655.202h-34.033v66.065h34.033zM336.328 272.829c27.046 0 49.048-22.003 49.048-49.048s-22.001-49.048-49.048-49.048-49.048 22.003-49.048 49.048 22.001 49.048 49.048 49.048zM577.564 463.015h-34.033v66.065h34.033zM287.281 529.079h34.033v-66.065h-34.033zM191.187 529.079h66.065v-96.094h94.092v96.094h66.065v-162.158h-226.221zM874.642 497.048l98.096-98.096h-204.988v98.096zM880.86 174.733c-27.046 0-49.048 22.003-49.048 49.048s22.001 49.048 49.048 49.048 49.048-22.003 49.048-49.048-22.001-49.048-49.048-49.048zM958.49 238.796c-7.037 36.446-39.16 64.063-77.63 64.063s-70.593-27.617-77.63-64.063h-35.481v130.127h226.221v-130.127zM320.313 238.796h32.031v-30.029h-32.031zM864.845 238.796h32.031v-30.029h-32.031zM0 623.171h176.172v-30.029h-176.172zM512.5 302.858h192.188v-30.029h-192.188zM784.766 350.905h64.063v-30.029h-64.063z" />
<glyph unicode="&#xe922;" glyph-name="delivery2" d="M896.751 960c-61.326 0-111.217-49.891-111.217-111.217 0-103.047 98.679-170.018 102.881-172.818l8.336-5.557 8.336 5.557c4.202 2.799 102.881 69.77 102.881 172.818 0 61.326-49.891 111.217-111.217 111.217zM933.954 742.946c-14.158-16.626-28.494-28.924-37.203-35.772-8.711 6.851-23.047 19.147-37.203 35.772-29.167 34.251-43.956 69.86-43.956 105.837 0 44.751 36.407 81.159 81.159 81.159s81.159-36.407 81.159-81.159c0-35.976-14.789-71.586-43.956-105.837zM896.751 895.875c-25.967 0-47.092-21.125-47.092-47.092s21.125-47.092 47.092-47.092 47.092 21.125 47.092 47.092-21.125 47.092-47.092 47.092zM896.751 831.75c-9.39 0-17.033 7.641-17.033 17.033s7.643 17.033 17.033 17.033 17.033-7.641 17.033-17.033-7.643-17.033-17.033-17.033zM191.374 222.56h32.063v-30.059h-32.063zM430.841 350.81h-286.56v-159.311h30.059v129.252h66.129v-96.188h94.184v96.188h66.129v-162.317h-384.751v-222.434h543.061v95.186h-30.059v-65.127h-226.442v162.317h66.129v-96.188h94.184v96.188h66.129v-65.127h30.059v95.186h-128.25zM304.595 254.622h-34.067v66.129h34.067zM142.278 128.376h34.067v-66.129h-34.067zM272.532-33.941h-226.442v162.317h66.129v-96.188h94.184v96.188h66.129zM432.845 62.247h-34.067v66.129h34.067zM63.123 30.184h32.063v-30.059h-32.063zM319.624 30.184h32.063v-30.059h-32.063zM661.684 870.217l38.469-38.467h-555.872v-158.309h448.877v-98.192h-320.626v-191.374h30.059v161.315h320.626v158.309h-448.877v98.192h525.813l-38.469-38.467 21.258-21.258 74.75 74.754-74.75 74.754z" />
<glyph unicode="&#xe923;" glyph-name="packages6" d="M415.812 863.812h256.501v-30.059h-256.501zM415.812 799.687h192.376v-30.059h-192.376zM806.788 960h-502.193v-335.656h30.059v305.597h450.881v-160.313h160.313v-675.319h-321.628v-30.059h351.687v726.631zM815.593 908.688l109.001-109.001h-109.001zM576.125 607.311h224.438v-30.059h-224.438zM576.125 671.436h288.564v-30.059h-288.564zM400.783 545.19h126.247v126.247h-126.247zM430.841 641.378h66.129v-66.129h-66.129zM576.125 446.998h224.438v-30.059h-224.438zM576.125 511.123h288.564v-30.059h-288.564zM576.125 286.685h224.438v-30.059h-224.438zM576.125 350.81h288.564v-30.059h-288.564zM400.783 384.877h126.247v126.247h-126.247zM430.841 481.065h66.129v-66.129h-66.129zM223.436 222.56h32.063v-30.059h-32.063zM462.904 350.81h-128.25v241.472h-30.059v-241.472h-128.25v-192.376h-128.25v-222.434h543.061v222.434h-128.25zM302.591 320.751h34.067v-66.129h-34.067zM206.403 320.751h66.129v-96.188h94.184v96.188h66.129v-162.317h-226.442zM430.841 128.376h34.067v-66.129h-34.067zM174.341 128.376h34.067v-66.129h-34.067zM78.153 128.376h66.129v-96.188h94.184v96.188h66.129v-162.317h-226.442zM561.096-33.941h-226.442v162.317h66.129v-96.188h94.184v96.188h66.129zM95.186 30.184h32.063v-30.059h-32.063zM351.687 30.184h32.063v-30.059h-32.063z" />
<glyph unicode="&#xe924;" glyph-name="packages7" d="M687.342 592.282c0 96.685-78.658 175.342-175.342 175.342s-175.342-78.658-175.342-175.342 78.658-175.342 175.342-175.342 175.342 78.658 175.342 175.342zM582.349 511.123l-17.033 17.033 49.096 49.096h42.094c-2.509-24.307-11.034-46.858-24.061-66.129zM527.029 736.79c20.765-2.144 40.223-8.709 57.472-18.689l-23.406-23.408v-23.257h-10.809l-23.257 23.257zM367.748 609.315h41.84l32.063-32.063h23.257v-10.809l-23.257-23.257h-66.378c-5.527 15.344-8.557 31.87-8.557 49.096 0 5.765 0.375 11.442 1.032 17.033zM390.266 513.127h63.833l40.868 40.868v53.316h-40.868l-32.063 32.063h-47.443c18.047 52.509 65.354 91.527 122.377 97.416v-54.545l40.868-40.868h53.316v40.868l17.973 17.973c26.041-23.458 43.587-56.168 47.379-92.907h-54.545l-79.155-79.155 47.092-47.092h35.441c-25.265-21.239-57.827-34.067-93.34-34.067-50.925 0-95.785 26.359-121.734 66.129zM47.092 126.372h32.063v-30.059h-32.063zM784.532 318.748h32.063v-30.059h-32.063zM753.295 446.998c20.093 50.601 30.235 99.142 30.235 145.284 0 149.722-121.808 271.53-271.53 271.53-82.838 0-160.099-37.11-211.97-101.817l23.454-18.801c46.136 57.55 114.846 90.559 188.516 90.559 133.148 0 241.472-108.324 241.472-241.472 0-111.58-67.883-224.206-124.83-299.040-47.896-62.941-96.346-110.46-116.642-129.467-20.296 19.007-68.746 66.526-116.642 129.467-103.174 135.581-124.83 237.454-124.83 299.040 0 42.455 11.168 84.202 32.297 120.726l-26.019 15.051c-23.772-41.092-36.337-88.044-36.337-135.777 0-96.444 44.184-203.339 131.324-317.711 8.765-11.504 17.506-22.454 26.083-32.83-30.496-7.402-56.959-17.723-77.656-30.381-15.667-9.583-26.4-19.486-33.662-29.055v72.317h-286.56v-222.434h286.56v72.385c12.48-16.424 33.053-31.099 60.819-42.998 44.218-18.951 102.683-29.387 164.622-29.387s120.403 10.436 164.622 29.387c27.764 11.899 48.336 26.574 60.819 42.998v-72.385h286.56v414.81zM126.247 224.564h34.067v-66.129h-34.067zM256.501 62.247h-226.442v162.317h66.129v-96.188h94.184v96.188h66.129zM863.687 416.939h34.067v-66.129h-34.067zM512 62.247c-123.409 0-209.409 42.772-209.409 81.159 0 29.003 48.557 58.518 117.379 72.423 44.569-50.677 80.149-82 82.132-83.736l9.897-8.659 9.897 8.659c1.982 1.735 37.563 33.057 82.132 83.736 68.822-13.905 117.379-43.421 117.379-72.423 0-38.387-86.002-81.159-209.409-81.159zM993.941 62.247h-226.442v162.317h66.129v-96.188h94.184v96.188h66.129zM863.687 224.564h34.067v-66.129h-34.067zM993.941 254.622h-256.501v-72.317c-7.262 9.569-17.997 19.472-33.662 29.055-20.696 12.659-47.16 22.979-77.656 30.381 8.579 10.376 17.318 21.326 26.083 32.83 35.622 46.751 64.053 92.252 85.234 136.302v-123.187h30.059v129.252h66.129v-96.188h94.184v96.188h66.129zM784.532 126.372h32.063v-30.059h-32.063z" />
<glyph unicode="&#xe925;" glyph-name="shipping2" d="M1024 422.187l-136.922 136.922h-119.329v160.156h-175.173v-30.029h145.144v-290.283h-546.534v98.096h226.221v-85.295l132.341 132.341-132.341 132.341v-85.295h-226.221v98.096h369.361v30.029h-560.547v-30.029h161.157v-34.033h-129.126v-30.029h129.126v-34.033h-65.064v-30.029h351.343v42.83l59.846-59.846-59.846-59.846v42.83h-286.28v-286.28h97.541c7.037-36.446 39.16-64.063 77.63-64.063 43.603 0 79.077 35.475 79.077 79.077s-35.475 79.077-79.077 79.077c-38.47 0-70.593-27.617-77.63-64.063h-67.512v98.096h546.534v-98.096h-289.283v-30.029h354.792c7.035-36.446 39.16-64.063 77.63-64.063s70.593 27.617 77.63 64.063h65.51zM336.328 304.86c27.044 0 49.048-22.003 49.048-49.048s-22.003-49.048-49.048-49.048-49.048 22.003-49.048 49.048 22.003 49.048 49.048 49.048zM874.642 529.079l98.096-98.096h-204.988v98.096zM880.86 206.764c-27.044 0-49.048 22.003-49.048 49.048s22.003 49.048 49.048 49.048 49.048-22.003 49.048-49.048-22.003-49.048-49.048-49.048zM958.49 270.827c-7.035 36.446-39.16 64.063-77.63 64.063s-70.593-27.617-77.63-64.063h-35.481v130.127h226.221v-130.127zM320.313 270.827h32.031v-30.029h-32.031zM864.845 270.827h32.031v-30.029h-32.031zM512.5 334.89h192.188v-30.029h-192.188zM784.766 382.936h64.063v-30.029h-64.063z" />
<glyph unicode="&#xe926;" glyph-name="shipping3" d="M576.125 62.247h32.063v-30.059h-32.063zM640.25 62.247h32.063v-30.059h-32.063zM336.658 126.372v-126.247h126.247v126.247zM411.592 96.313l-44.876-44.876v44.876zM387.97 30.184l44.876 44.876v-44.876zM847.656 609.315v15.029c0 88.399-34.077 171.844-95.951 234.961l-21.464-21.043c52.811-53.871 83.379-124.014 86.994-198.886h-130.068c-1.85 82.313-18.853 159.383-48.366 218.409-11.935 23.871-25.46 43.836-40.168 59.62 40.916-12.092 79.159-32.698 112.001-60.813l19.55 22.835c-60.695 51.957-138.18 80.573-218.182 80.573-185.081 0-335.656-150.574-335.656-335.656v-15.029h87.671l217.926-290.568h-209.409v-175.342h30.059v145.284h130.254v-128.25h158.309v128.25h130.254v-322.63h-418.818v145.284h-30.059v-175.342h478.935v382.748h-209.409l217.926 290.568zM657.105 639.374h-130.076v288.852c31.367-7.092 61.063-36.241 84.886-83.886 27.492-54.981 43.373-127.285 45.19-204.966zM496.971 928.226v-288.852h-130.076c1.818 77.682 17.699 149.985 45.19 204.966 23.823 47.645 53.519 76.794 84.886 83.886zM572.907 609.315l-60.907-243.63-60.907 243.63zM425.391 917.429c-14.717-15.789-28.251-35.762-40.193-59.646-29.512-59.025-46.517-136.096-48.364-218.409h-130.066c6.417 131.831 96.771 241.983 218.623 278.055zM420.109 609.315l59.26-237.041-177.779 237.041zM462.904 288.689h34.067v-98.192h-34.067zM561.096 190.497h-34.067v98.192h34.067zM544.632 372.276l59.26 237.039h118.519z" />
<glyph unicode="&#xe927;" glyph-name="packages8" d="M721.409 544.188h30.059v-320.626h-30.059zM302.591 929.941h418.818v-353.691h30.059v383.75h-478.935v-688.344h30.059zM415.812 286.685h32.063v-30.059h-32.063zM287.562 94.309h32.063v-30.059h-32.063zM544.063 94.309h32.063v-30.059h-32.063zM336.658 512.125c0-25.967 21.125-47.092 47.092-47.092s47.092 21.125 47.092 47.092-21.125 47.092-47.092 47.092-47.092-21.125-47.092-47.092zM400.783 512.125c0-9.392-7.643-17.033-17.033-17.033s-17.033 7.641-17.033 17.033 7.643 17.033 17.033 17.033 17.033-7.641 17.033-17.033zM527.029 30.184v162.317h66.129v-96.188h94.184v96.188h66.129v-129.252h30.059v159.311h-128.25v192.376h-286.56v-192.376h-128.25v-192.376h-96.188v-94.184h735.436v94.184zM657.284 126.372h-34.067v66.129h34.067zM494.967 384.877h34.067v-66.129h-34.067zM398.779 384.877h66.129v-96.188h94.184v96.188h66.129v-162.317h-226.442zM366.716 192.501h34.067v-66.129h-34.067zM270.528 192.501h66.129v-96.188h94.184v96.188h66.129v-162.317h-226.442zM849.659-33.941h-675.319v34.067h675.319z" />
<glyph unicode="&#xe928;" glyph-name="document-new-business1" d="M137.143 836.571h208.457c9.584 0.025 18.931-2.963 26.726-8.541 7.792-5.578 13.635-13.465 16.701-22.544l24.688-74.971c3.066-9.080 8.909-16.966 16.701-22.544s17.142-8.566 26.726-8.541h320c12.125 0 23.75-4.816 32.323-13.389s13.392-20.201 13.392-32.325c0-12.124 4.816-23.752 13.389-32.325s20.198-13.389 32.323-13.389c12.125 0 23.754 4.816 32.326 13.389s13.389 20.201 13.389 32.325c0 36.372-14.448 71.255-40.17 96.974-25.718 25.719-60.602 40.168-96.973 40.168h-287.085l-14.63 45.714c-9.482 26.824-27.072 50.034-50.336 66.415-23.261 16.381-51.040 25.123-79.491 25.013h-208.457c-36.372 0-71.255-14.449-96.974-40.168s-40.168-60.602-40.168-96.974v-594.287c0-36.371 14.449-71.254 40.168-96.973s60.602-40.17 96.974-40.17h274.284c12.125 0 23.754 4.816 32.326 13.392 8.573 8.573 13.389 20.198 13.389 32.323s-4.816 23.754-13.389 32.326c-8.573 8.573-20.202 13.389-32.326 13.389h-274.284c-12.124 0-23.752 4.816-32.325 13.389s-13.389 20.202-13.389 32.323v594.287c0 12.124 4.816 23.752 13.389 32.325s20.201 13.389 32.325 13.389zM914.285 325.485v53.942c0 36.374-14.448 71.258-40.17 96.976-25.718 25.718-60.602 40.166-96.973 40.166-36.374 0-71.254-14.448-96.976-40.166-25.718-25.718-40.166-60.602-40.166-96.976v-53.942c-26.678-9.43-49.782-26.883-66.15-49.962-16.371-23.082-25.2-50.656-25.28-78.954v-91.427c0-36.371 14.451-71.254 40.17-96.973 25.718-25.722 60.602-40.17 96.973-40.17h182.858c36.374 0 71.258 14.448 96.976 40.17 25.718 25.718 40.166 60.602 40.166 96.973v91.427c-0.077 28.298-8.909 55.872-25.277 78.954-16.368 23.078-39.475 40.531-66.15 49.962zM731.427 379.427c0 12.125 4.816 23.754 13.389 32.326s20.202 13.389 32.326 13.389c12.125 0 23.75-4.816 32.323-13.389s13.392-20.202 13.392-32.326v-45.712h-91.43v45.712zM914.285 105.142c0-12.125-4.816-23.75-13.389-32.323-8.573-8.576-20.202-13.392-32.326-13.392h-182.858c-12.122 0-23.75 4.816-32.323 13.392-8.573 8.573-13.389 20.198-13.389 32.323v91.427c0 12.125 4.816 23.754 13.389 32.326s20.202 13.389 32.323 13.389h182.858c12.125 0 23.754-4.816 32.326-13.389s13.389-20.202 13.389-32.326v-91.427z" />
<glyph unicode="&#xe929;" glyph-name="download-down" d="M630.275 177.323l-66.109-66.604v286.396c0 13.588-5.4 26.617-15.008 36.226-9.612 9.609-22.647 15.005-36.239 15.005s-26.627-5.396-36.239-15.005c-9.609-9.609-15.008-22.637-15.008-36.226v-286.396l-66.113 66.604c-4.779 4.775-10.452 8.564-16.695 11.151-6.243 2.584-12.933 3.915-19.692 3.915s-13.449-1.331-19.692-3.915c-6.243-2.587-11.916-6.376-16.694-11.151-4.778-4.779-8.569-10.448-11.155-16.691-2.586-6.24-3.917-12.93-3.917-19.685s1.331-13.445 3.917-19.688c2.586-6.24 6.376-11.913 11.155-16.688l153.746-153.702c4.874-4.663 10.619-8.318 16.91-10.759 6.137-2.71 12.769-4.11 19.476-4.11s13.339 1.399 19.473 4.11c6.291 2.441 12.039 6.096 16.913 10.759l153.747 153.702c9.649 9.646 15.070 22.733 15.070 36.376s-5.42 26.726-15.070 36.376c-9.653 9.646-22.74 15.066-36.386 15.066-13.65 0-26.737-5.42-36.39-15.066zM841.933 744.476c-31.314 71.932-85.354 131.615-153.842 169.904-68.492 38.289-147.651 53.072-225.348 42.084-77.694-10.988-149.646-47.142-204.824-102.921s-90.539-128.106-100.665-205.898c-48.861-11.698-91.724-40.928-120.448-82.137s-41.309-91.532-35.365-141.404c5.944-49.876 30.003-95.833 67.607-129.143s86.136-51.654 136.379-51.548c13.592 0 26.627 5.4 36.238 15.008 9.611 9.605 15.010 22.637 15.010 36.226s-5.4 26.621-15.010 36.229c-9.611 9.605-22.646 15.005-36.238 15.005-27.184 0-53.254 10.796-72.476 30.010-19.222 19.217-30.021 45.281-30.021 72.455 0 27.177 10.799 53.241 30.021 72.458 19.222 19.214 45.293 30.010 72.476 30.010 13.592 0 26.627 5.396 36.238 15.005s15.010 22.641 15.010 36.229c0.131 60.595 21.744 119.181 61 165.351 39.254 46.17 93.611 76.934 153.413 86.826 59.798 9.892 121.17-1.728 173.21-32.796s91.378-79.572 111.025-136.895c2.929-8.804 8.195-16.648 15.237-22.693 7.038-6.046 15.589-10.067 24.736-11.633 34.137-6.449 65.079-24.264 87.791-50.545 22.712-26.279 35.85-59.471 37.277-94.17s-8.943-68.861-29.423-96.915c-20.477-28.051-49.855-48.346-83.343-57.573-6.53-1.683-12.663-4.632-18.050-8.684s-9.923-9.124-13.35-14.93c-3.427-5.803-5.676-12.227-6.618-18.9-0.945-6.673-0.563-13.466 1.116-19.992 1.683-6.526 4.635-12.657 8.687-18.043 4.055-5.386 9.127-9.923 14.933-13.346 5.806-3.427 12.23-5.673 18.906-6.618 6.673-0.942 13.469-0.563 19.999 1.12 53.934 14.247 101.741 45.701 136.168 89.583 34.423 43.882 53.586 97.799 54.569 153.556 0.986 55.76-16.258 110.319-49.108 155.39-32.853 45.071-79.52 78.194-132.919 94.337z" />
<glyph unicode="&#xe92a;" glyph-name="envelope" d="M896 810.667h-768c-58.816 0-106.667-47.851-106.667-106.667v-512c0-58.816 47.851-106.667 106.667-106.667h768c58.816 0 106.667 47.851 106.667 106.667v512c0 58.816-47.851 106.667-106.667 106.667zM643.371 448.043l314.517 271.467c1.259-4.992 2.112-10.112 2.112-15.488v-512c0-5.376-0.853-10.496-2.112-15.488l-314.517 271.531zM896 768c14.272 0 27.328-4.864 37.995-12.779l-380.288-328.213c-24.171-20.971-59.243-20.949-83.456 0l-380.245 328.213c10.645 7.936 23.723 12.779 37.995 12.779zM66.112 176.512c-1.259 4.992-2.112 10.112-2.112 15.488v512c0 5.376 0.853 10.496 2.112 15.488l314.517-271.467zM128 128c-14.272 0-27.328 4.864-37.995 12.779l323.264 279.061 29.077-25.109c19.861-17.216 44.757-25.813 69.653-25.813s49.771 8.597 69.611 25.792l29.12 25.131 323.264-279.083c-10.645-7.936-23.723-12.779-37.995-12.779h-768z" />
<glyph unicode="&#xe92b;" glyph-name="pin" d="M512 960c-188.208 0-341.334-153.126-341.334-341.334 0-56.5 14.126-112.52 40.98-162.208l281.688-509.458c3.75-6.792 10.896-11 18.666-11s14.916 4.208 18.666 11l281.792 509.626c26.75 49.52 40.876 105.542 40.876 162.042 0 188.206-153.126 341.332-341.334 341.332zM775.020 477.104l-263.020-475.688-262.916 475.5c-23.396 43.292-35.75 92.312-35.75 141.75 0 164.688 133.98 298.666 298.666 298.666s298.666-133.98 298.666-298.666c0-49.436-12.354-98.458-35.646-141.562zM512 789.334c-94.104 0-170.666-76.562-170.666-170.666 0-94.106 76.562-170.668 170.666-170.668s170.666 76.562 170.666 170.666c0 94.104-76.562 170.668-170.666 170.668zM512 490.666c-70.584 0-128 57.416-128 128s57.416 128 128 128 128-57.416 128-128c0-70.582-57.416-128-128-128z" />
<glyph unicode="&#xe92c;" glyph-name="facebook-app-symbol" d="M591.302-64v467.060h156.71l23.511 182.076h-180.221v116.229c0 52.699 14.574 88.612 90.229 88.612l96.335 0.040v162.855c-16.66 2.165-73.847 7.129-140.407 7.129-138.987 0-234.141-84.837-234.141-240.603v-134.261h-157.185v-182.076h157.185v-467.060h187.983z" />
<glyph unicode="&#xe92d;" glyph-name="linked-in-logo-of-two-letters" d="M33.252-19.696h133.122c18.366 0 33.252 14.888 33.252 33.254v581.872c0 18.367-14.887 33.252-33.252 33.252h-133.122c-18.367 0-33.252-14.885-33.252-33.252v-581.872c0-18.364 14.885-33.254 33.252-33.254zM33.252 730.979h133.122c18.366 0 33.252 14.887 33.252 33.252v118.213c0 18.366-14.887 33.252-33.252 33.252h-133.122c-18.367 0-33.252-14.887-33.252-33.252v-118.213c0-18.366 14.885-33.252 33.252-33.252zM973.912 561.193c-18.706 24.623-46.29 44.873-82.762 60.745-36.472 15.861-76.73 23.797-120.777 23.797-89.416 0-165.183-34.125-227.298-102.387-12.36-13.582-21.346-10.613-21.346 7.755v44.328c0 18.367-14.888 33.252-33.254 33.252h-118.915c-18.367 0-33.252-14.885-33.252-33.252v-581.872c0-18.366 14.887-33.254 33.252-33.254h133.122c18.367 0 33.252 14.888 33.252 33.254v202.36c0 84.303 5.091 142.088 15.272 173.345 10.178 31.257 29.010 56.356 56.479 75.302 27.472 18.945 58.49 28.423 93.069 28.423 26.994 0 50.086-6.632 69.27-19.898 19.183-13.264 33.037-31.844 41.562-55.767 8.529-23.919 12.79-76.608 12.79-158.073v-245.69c0-18.366 14.885-33.254 33.25-33.254h133.122c18.366 0 33.25 14.888 33.25 33.254v329.524c0 58.251-3.672 103.011-11.006 134.268s-20.363 59.204-39.080 83.84z" />
<glyph unicode="&#xe92e;" glyph-name="twitter" d="M1024 765.504c-38.080-16.704-78.656-27.776-120.96-33.152 43.52 25.984 76.736 66.816 92.352 116.032-40.576-24.192-85.376-41.28-133.12-50.816-38.528 41.024-93.44 66.432-153.344 66.432-116.224 0-209.792-94.336-209.792-209.984 0-16.64 1.408-32.64 4.864-47.872-174.528 8.512-328.96 92.16-432.704 219.584-18.112-31.424-28.736-67.392-28.736-106.112 0-72.704 37.44-137.152 93.248-174.464-33.728 0.64-66.816 10.432-94.848 25.856 0-0.64 0-1.472 0-2.304 0-102.016 72.768-186.752 168.192-206.272-17.088-4.672-35.712-6.912-55.040-6.912-13.44 0-27.008 0.768-39.744 3.584 27.2-83.136 104.384-144.256 196.16-146.24-71.424-55.872-162.112-89.536-260.288-89.536-17.216 0-33.728 0.768-50.24 2.88 92.992-59.968 203.2-94.208 322.048-94.208 386.304 0 597.504 320 597.504 597.376 0 9.28-0.32 18.24-0.768 27.136 41.664 29.568 76.672 66.496 105.216 108.992z" />
<glyph unicode="&#xe92f;" glyph-name="pinterest" d="M245.891 403.562c1.281 3.195 14.102 52.461 15 55.797-20.016 30.117-42.25 128.742-25.195 208.797 18.398 117.461 142.875 175.203 260.398 175.203v0.219c147.141-0.094 257.281-81.961 257.398-222.953 0.094-110.359-66.391-256.234-179.914-256.234-0.031 0-0.055 0-0.086 0-40.516 0-91.813 18.375-105.266 36.422-15.523 20.797-19.336 46.461-11.133 73.883 20.102 64.164 45.734 141.023 48.727 192.273 2.773 48.367-31.547 79.836-76.055 79.836-33.492 0-76.992-19.453-98.672-74.117-17.906-45.414-17.523-92.961 1.172-145.344 7.289-20.477-32.313-153.969-45-197.438-31.523-107.984-74.68-244.609-65.453-320.695l8.906-73.211 44.734 58.625c61.906 81.039 125.914 290.664 142.969 341.672 50.422-65.297 155.422-67.172 167.664-67.172 150.367 0 320.875 149.313 316.039 357.125-4.242 182.242-137.617 333.75-377.266 333.75v-0.234c-227.953 0-361-121.672-393.57-275.406-29.828-142.547 36.508-251.039 114.602-280.797z" />
<glyph unicode="&#xe930;" glyph-name="down-filled-triangular-arrow" d="M974.608 728.555h-925.217c-43.783 0-66.087-52.87-34.696-84.261l462.608-462.608c19-19 50.391-19 69.4 0l462.608 462.608c31.383 31.391 9.079 84.261-34.704 84.261z" />
<glyph unicode="&#xe931;" glyph-name="heart" d="M512-7.031c-14.578 0-28.633 5.281-39.586 14.875-41.367 36.172-81.25 70.164-116.438 100.148l-0.18 0.156c-103.164 87.914-192.25 163.836-254.234 238.625-69.289 83.609-101.563 162.883-101.563 249.484 0 84.141 28.852 161.766 81.234 218.586 53.008 57.492 125.742 89.156 204.828 89.156 59.109 0 113.242-18.688 160.891-55.539 24.047-18.602 45.844-41.367 65.047-67.922 19.211 26.555 41 49.32 65.055 67.922 47.648 36.852 101.781 55.539 160.891 55.539 79.078 0 151.82-31.664 204.828-89.156 52.383-56.82 81.227-134.445 81.227-218.586 0-86.602-32.266-165.875-101.555-249.477-61.984-74.797-151.063-150.711-254.211-238.617-35.25-30.031-75.195-64.078-116.656-100.336-10.945-9.578-25.008-14.859-39.578-14.859zM286.063 844.016c-62.133 0-119.211-24.797-160.734-69.828-42.141-45.711-65.352-108.898-65.352-177.93 0-72.836 27.070-137.977 87.766-211.211 58.664-70.789 145.922-145.148 246.953-231.25l0.188-0.156c35.32-30.102 75.359-64.227 117.031-100.664 41.922 36.508 82.023 70.688 117.414 100.836 101.023 86.102 188.273 160.445 246.938 231.234 60.688 73.234 87.758 138.375 87.758 211.211 0 69.031-23.211 132.219-65.352 177.93-41.516 45.031-98.602 69.828-160.727 69.828-45.516 0-87.305-14.469-124.203-43-32.883-25.438-55.789-57.594-69.219-80.094-6.906-11.57-19.063-18.477-32.523-18.477s-25.617 6.906-32.523 18.477c-13.422 22.5-36.328 54.656-69.219 80.094-36.898 28.531-78.688 43-124.195 43z" />
<glyph unicode="&#xe932;" glyph-name="shopping-cart" d="M326.652 163.515c-59.043 0-106.904-47.863-106.904-106.904 0-59.043 47.863-106.904 106.904-106.904 59.043 0 106.904 47.863 106.904 106.904 0.002 59.040-47.861 106.904-106.904 106.904zM326.652-2.782c-32.801 0-59.39 26.59-59.39 59.39s26.59 59.39 59.39 59.39c32.801 0 59.39-26.59 59.39-59.39 0.002-32.801-26.59-59.39-59.39-59.39zM778.028 163.515c-59.043 0-106.904-47.863-106.904-106.904 0-59.043 47.863-106.904 106.904-106.904s106.904 47.863 106.904 106.904c0 59.040-47.861 106.904-106.904 106.904zM778.028-2.782c-32.801 0-59.39 26.59-59.39 59.39s26.59 59.39 59.39 59.39 59.39-26.59 59.39-59.39c0.002-32.801-26.59-59.39-59.39-59.39zM1019.157 787.124c-4.947 5.404-11.716 8.787-19.005 9.504l-773.276 10.69-21.381 65.331c-15.062 43.673-55.96 73.157-102.154 73.646h-79.584c-13.121 0-23.757-10.636-23.757-23.757s10.636-23.757 23.757-23.757h79.584c25.83-0.571 48.575-17.156 57.017-41.575l150.854-454.939-11.877-27.319c-13.248-34.163-9.269-72.614 10.69-103.341 19.769-30.18 53.027-48.805 89.088-49.889h462.066c13.121 0 23.757 10.636 23.757 23.757s-10.636 23.757-23.757 23.757h-462.069c-20.364 0.509-39.11 11.222-49.889 28.508-10.659 17.075-12.848 38.11-5.939 57.017l9.504 21.381 500.076 52.265c54.93 6.050 100.115 46.001 112.845 99.778l57.017 238.753c2.569 6.875 1.205 14.608-3.567 20.189zM919.381 538.869c-7.712-34.618-37.103-60.152-72.457-62.955l-494.138-51.076-110.469 334.967 728.139-10.69-51.076-210.245z" />
<glyph unicode="&#xe933;" glyph-name="search-interface-symbol" d="M1014.294-8.29l-264.38 260.155c69.233 75.219 111.771 174.698 111.771 284.164-0.033 234.168-192.91 423.971-430.854 423.971s-430.821-189.803-430.821-423.971 192.877-423.971 430.821-423.971c102.808 0 197.102 35.56 271.168 94.678l265.406-261.181c12.932-12.74 33.927-12.74 46.859 0 12.962 12.738 12.962 33.415 0.030 46.155zM430.831 177.289c-201.326 0-364.533 160.613-364.533 358.74s163.207 358.74 364.533 358.74c201.328 0 364.533-160.613 364.533-358.74s-163.205-358.74-364.533-358.74z" />
<glyph unicode="&#xe934;" glyph-name="right-arrow" d="M1000.369 427.126h-976.738c-11.618 0-21.005 9.387-21.005 21.005s9.387 21.005 21.005 21.005h925.998l-127.475 127.475c-8.205 8.205-8.205 21.53 0 29.735s21.53 8.205 29.735 0l163.381-163.381c6.039-6.039 7.811-15.032 4.529-22.909-3.282-7.811-10.962-12.931-19.43-12.931zM836.792 263.549c-5.383 0-10.765 2.035-14.835 6.17-8.205 8.205-8.205 21.53 0 29.735l163.577 163.577c8.205 8.205 21.53 8.205 29.735 0s8.205-21.53 0-29.735l-163.577-163.577c-4.135-4.135-9.518-6.17-14.901-6.17z" />
<glyph unicode="&#xe935;" glyph-name="right-arrow-1" d="M1017.232 464.407v0l-232.722 232.724c-8.36 9.762-23.052 10.9-32.813 2.538-9.762-8.36-10.9-23.052-2.538-32.813 0.78-0.91 1.628-1.76 2.538-2.538l192.927-193.161h-921.352c-12.852 0-23.272-10.42-23.272-23.274s10.42-23.272 23.272-23.272h921.352l-192.927-192.927c-9.762-8.36-10.9-23.052-2.538-32.813s23.052-10.9 32.813-2.538c0.91 0.78 1.76 1.628 2.538 2.538l232.724 232.724c9.022 9.074 9.022 23.734-0.002 32.811z" />
<glyph unicode="&#xe936;" glyph-name="left-arrow-1" d="M6.768 431.593v0l232.722-232.724c8.36-9.762 23.052-10.9 32.813-2.538 9.762 8.36 10.9 23.052 2.538 32.813-0.78 0.91-1.628 1.76-2.538 2.538l-192.927 193.161h921.352c12.852 0 23.272 10.42 23.272 23.274s-10.42 23.272-23.272 23.272h-921.352l192.927 192.927c9.762 8.36 10.9 23.052 2.538 32.813s-23.052 10.9-32.813 2.538c-0.91-0.78-1.76-1.628-2.538-2.538l-232.724-232.724c-9.022-9.074-9.022-23.734 0.002-32.811z" />
<glyph unicode="&#xe937;" glyph-name="up-and-down-arrows" d="M176.896 651.435l119.168 119.168c11.583 11.59 27.589 18.76 45.269 18.76s33.686-7.169 45.269-18.759l119.168-119.168c3.856-3.862 6.241-9.194 6.241-15.083 0-11.789-9.557-21.345-21.345-21.345-5.9 0-11.24 2.393-15.104 6.262v0l-112.896 112.896v-606.165c0-11.782-9.551-21.333-21.333-21.333s-21.333 9.551-21.333 21.333v0 606.165l-112.896-112.896c-3.864-3.869-9.204-6.263-15.104-6.263-11.789 0-21.345 9.557-21.345 21.345 0 5.889 2.385 11.221 6.241 15.083v0zM859.563 232.064l-112.896-112.896v606.165c0 11.782-9.551 21.333-21.333 21.333s-21.333-9.551-21.333-21.333v0-606.165l-112.896 112.896c-3.864 3.869-9.204 6.263-15.104 6.263-11.789 0-21.345-9.557-21.345-21.345 0-5.889 2.385-11.221 6.241-15.083v0l119.168-119.168c11.583-11.59 27.589-18.76 45.269-18.76s33.686 7.169 45.269 18.759l119.168 119.168c3.856 3.862 6.241 9.194 6.241 15.083 0 11.789-9.557 21.345-21.345 21.345-5.9 0-11.24-2.393-15.104-6.262v0z" />
<glyph unicode="&#xe938;" glyph-name="view" d="M1017.492 467.917c-9.148 12.514-227.114 306.413-505.497 306.413s-496.359-293.899-505.497-306.401c-8.664-11.872-8.664-27.974 0-39.846 9.138-12.514 227.114-306.413 505.497-306.413s496.349 293.901 505.497 306.403c8.676 11.87 8.676 27.984 0 39.844zM511.995 189.186c-205.058 0-382.661 195.066-435.235 258.837 52.506 63.826 229.736 258.791 435.235 258.791 205.048 0 382.639-195.032 435.235-258.837-52.506-63.824-229.736-258.791-435.235-258.791zM511.995 650.549c-111.684 0-202.55-90.866-202.55-202.55s90.866-202.55 202.55-202.55 202.55 90.866 202.55 202.55-90.866 202.55-202.55 202.55zM511.995 312.967c-74.46 0-135.032 60.574-135.032 135.032s60.574 135.032 135.032 135.032 135.032-60.574 135.032-135.032-60.572-135.032-135.032-135.032z" />
<glyph unicode="&#xe939;" glyph-name="star" d="M1024 564.362l-371.866 24.456-140.134 352.040-140.134-352.042-371.866-24.456 285.316-241.86-93.604-367.358 320.288 202.43 320.288-202.43-93.6 367.342 285.312 241.878zM512 228.552l-224.928-142.16 65.654 257.662-201.068 170.17 261.942 17.206 98.4 247.196 98.4-247.198 262.248-17.204-201.378-170.154 65.658-257.678-224.928 142.16z" />
<glyph unicode="&#xe93a;" glyph-name="pointed-star" d="M655.897 566.746c-11.313 0-23.323 8.732-26.828 19.49l-110.737 340.796c-3.505 10.761-9.16 10.761-12.665 0l-110.717-340.796c-3.505-10.761-15.514-19.49-26.828-19.49h-358.34c-11.313 0-13.076-5.391-3.916-12.052l289.887-210.589c9.16-6.662 13.752-20.781 10.247-31.543l-110.714-340.776c-3.505-10.761 1.087-14.1 10.247-7.441l289.887 210.589c9.16 6.662 24.001 6.662 33.161 0l289.887-210.609c9.16-6.662 13.752-3.321 10.247 7.441l-110.717 340.776c-3.505 10.761 1.087 24.881 10.247 31.543l289.887 210.589c9.16 6.662 7.398 12.052-3.916 12.052l-358.32 0.020z" />
<glyph unicode="&#xe93b;" glyph-name="customer-testimonial" d="M1024 562.888l-353.808 51.361-158.192 320.614-158.192-320.534-353.808-51.361 255.96-249.434-60.546-352.398 316.586 166.33 316.465-166.33-60.586 352.398 256.121 249.353zM548.658 197.116l-36.658 19.336v540.279l87.495-177.206 18.289-37.181 41.129-5.922 195.575-28.48-171.365-166.773 7.090-40.968 33.516-194.89-175.071 91.806z" />
<glyph unicode="&#xe93c;" glyph-name="send" d="M1015.214 951.21c-8.486 8.488-21.218 11.098-32.354 6.642l-964-385.595c-11.030-4.412-18.416-14.916-18.84-26.79-0.422-11.872 6.202-22.874 16.89-28.058l380.135-184.362 184.364-380.135c5.028-10.368 15.528-16.91 26.986-16.91 0.356 0 0.714 0.006 1.072 0.020 11.87 0.422 22.378 7.808 26.788 18.838l385.599 963.994c4.456 11.144 1.846 23.87-6.64 32.356zM104.188 541.765l765.251 306.097-456.057-456.053-309.193 149.956zM605.765 40.188l-149.958 309.197 456.059 456.053-306.101-765.251z" />
<glyph unicode="&#xe93d;" glyph-name="customer-support" d="M952.096 513.552c-3.92 111.696-49.152 216.144-128.576 295.568-83.248 83.264-193.888 129.104-311.52 129.104-237.584 0-431.712-189.104-440.080-424.672-36.256-16.112-61.632-52.4-61.632-94.576v-116.192c0-57.056 46.416-103.488 103.488-103.488 36.928 0 66.96 30.032 66.96 66.96v189.264c0 34.672-26.592 62.944-60.4 66.304 12.48 205.232 183.328 368.4 391.664 368.4 104.832 0 203.408-40.864 277.6-115.056 68.128-68.128 108-156.928 114-253.36-33.776-3.392-60.32-31.648-60.32-66.288v-189.248c0-34.96 27.008-63.408 61.216-66.368v-47.824c0-53.856-43.824-97.664-97.68-97.664h-72.336c-3.552 10.144-9.12 19.52-16.928 27.296-13.68 13.744-31.92 21.312-51.344 21.312h-74.56c-10.704 0-20.976-2.272-30.384-6.656-25.664-11.792-42.24-37.68-42.24-65.952 0-19.424 7.568-37.664 21.28-51.312 13.712-13.744 31.952-21.312 51.344-21.312h74.56c30.912 0 58.16 19.984 68.32 48.624h72.288c80.336 0 145.68 65.344 145.68 145.664v56.368c36.032 16.208 61.216 52.368 61.216 94.368v116.192c0 42.144-25.376 78.432-61.616 94.544zM132.72 455.52v-189.248c0-10.448-8.496-18.96-18.96-18.96-30.592 0-55.488 24.896-55.488 55.488v116.192c0 30.608 24.896 55.488 55.488 55.488 10.464 0 18.96-8.512 18.96-18.96zM690.288 25.264c-2.384-11.296-12.528-19.504-24.096-19.504h-74.56c-6.56 0-12.72 2.56-17.424 7.264-4.64 4.624-7.2 10.8-7.2 17.36 0 9.584 5.616 18.336 14.416 22.384 3.136 1.472 6.576 2.224 10.208 2.224h74.56c6.56 0 12.72-2.544 17.408-7.248 4.64-4.624 7.2-10.8 7.2-17.36 0.016-1.76-0.176-3.52-0.512-5.12zM965.712 302.8c0-30.592-24.896-55.488-55.488-55.488-10.448 0-18.96 8.496-18.96 18.96v189.248c0 10.448 8.496 18.96 18.96 18.96 30.592 0 55.488-24.896 55.488-55.488zM667.408 294.528c56.080 0 101.696 45.632 101.696 101.696v207.216c0 27.104-10.592 52.64-29.824 71.872s-44.752 29.824-71.872 29.824h-310.816c-56.080 0-101.696-45.616-101.696-101.696v-207.216c0-56.080 45.616-101.696 101.696-101.696h1.904v-53.696c0-20.48 12.208-38.656 31.088-46.32 6.096-2.448 12.432-3.664 18.704-3.664 13.072 0 25.808 5.184 35.136 14.832l89.328 88.848zM505.952 335.552l-96.672-96.144c-0.432-0.448-0.752-0.784-1.664-0.384-1.104 0.448-1.104 1.168-1.104 1.808v77.696c0 13.248-10.736 24-24 24h-25.904c-29.616 0-53.696 24.096-53.696 53.696v207.216c0 29.616 24.080 53.696 53.696 53.696h310.816c14.304 0 27.76-5.6 37.936-15.76 10.176-10.176 15.76-23.648 15.76-37.936v-207.216c0-29.616-24.096-53.696-53.696-53.696h-144.544c-6.352 0-12.432-2.512-16.928-6.976zM395.408 531.408c-19.52 0-35.408-15.904-35.408-35.408s15.904-35.408 35.408-35.408c19.536 0 35.44 15.904 35.44 35.408s-15.888 35.408-35.44 35.408zM511.984 531.408c-19.52 0-35.408-15.904-35.408-35.408s15.904-35.408 35.408-35.408c19.552 0 35.44 15.904 35.44 35.408s-15.888 35.408-35.44 35.408zM628.56 531.408c-19.52 0-35.408-15.904-35.408-35.408s15.904-35.408 35.408-35.408c19.536 0 35.44 15.904 35.44 35.408s-15.904 35.408-35.44 35.408z" />
<glyph unicode="&#xe93e;" glyph-name="secure-payment" d="M657.306 245.965h-587.674c-0.032 0-0.069 0-0.106 0-26.873 0-48.699 21.611-49.045 48.403v490.631c0 27.146 22.006 49.152 49.152 49.152h750.080c27.146 0 49.152-22.006 49.152-49.152v0-286.72c0-5.655-4.585-10.24-10.24-10.24s-10.24 4.585-10.24 10.24v0 286.72c-0.058 15.812-12.86 28.614-28.666 28.672h-750.086c-15.812-0.058-28.614-12.86-28.672-28.666v-490.604c0.116-15.747 12.908-28.467 28.671-28.467 0 0 0.001 0 0.001 0h587.674c5.655 0 10.24-4.585 10.24-10.24s-4.585-10.24-10.24-10.24v0zM858.522 631.808h-826.266c-5.655 0-10.24 4.585-10.24 10.24v0 85.504c0 5.655 4.585 10.24 10.24 10.24v0h826.266c5.655 0 10.24-4.585 10.24-10.24v0-85.504c0-5.655-4.585-10.24-10.24-10.24v0zM42.496 652.288h805.786v65.024h-805.786zM813.67 61.85c-2.317 0-4.454 0.769-6.17 2.067l0.026-0.019c-110.285 81.92-184.32 169.37-184.32 329.318v75.264c0.010 2.951 1.266 5.607 3.27 7.469l0.006 0.006c1.934 1.747 4.509 2.816 7.334 2.816 0.374 0 0.744-0.019 1.109-0.055l-0.046 0.004c6.449-0.67 13.934-1.052 21.508-1.052 58.261 0 111.241 22.609 150.645 59.533l-0.121-0.112c1.815 1.665 4.244 2.685 6.912 2.685s5.097-1.020 6.92-2.692l-0.008 0.007c41.779-37.888 98.406-56.73 172.544-58.368 5.655 0 10.24-4.585 10.24-10.24v0-75.571c0-159.949-73.421-247.296-184.32-329.318-1.554-1.057-3.463-1.702-5.52-1.741h-0.010zM644.198 458.24v-64.819c0-148.378 67.482-231.322 169.472-308.326 101.888 76.8 169.37 159.744 169.37 308.122v65.638c-70.758 2.765-126.362 21.606-169.37 57.344-41.497-36.242-96.156-58.342-155.976-58.342-4.748 0-9.463 0.139-14.142 0.414l0.646-0.030zM873.677 222.72h-120.115c0 0 0 0 0 0-10.935 0-19.807 8.836-19.865 19.758v87.353c0.058 10.927 8.93 19.763 19.865 19.763 0 0 0 0 0 0h120.115c0 0 0 0 0 0 10.935 0 19.807-8.836 19.865-19.758v-87.148c0-0.030 0-0.066 0-0.102 0-10.971-8.894-19.866-19.866-19.866 0 0 0 0 0 0v0zM754.176 329.114v-86.426l119.501 0.512-0.614 86.426zM860.16 329.114h-93.082c-5.655 0-10.24 4.585-10.24 10.24v0 33.69c-0.033 0.72-0.051 1.564-0.051 2.412 0 31.387 25.445 56.832 56.832 56.832s56.832-25.445 56.832-56.832c0-0.848-0.019-1.692-0.055-2.531l0.004 0.119v-33.69c0-5.655-4.585-10.24-10.24-10.24v0zM777.318 349.594h72.602v23.45c0.033 0.576 0.051 1.25 0.051 1.929 0 20.077-16.275 36.352-36.352 36.352s-36.352-16.275-36.352-36.352c0-0.678 0.019-1.353 0.055-2.022l-0.004 0.093zM813.67 270.541c-5.655 0-10.24 4.585-10.24 10.24v0 10.957c0 5.655 4.585 10.24 10.24 10.24s10.24-4.585 10.24-10.24v0-10.957c0-5.655-4.585-10.24-10.24-10.24v0zM337.101 355.123h-196.506c-12.612 0-22.835 10.224-22.835 22.835v0 93.286c0 12.612 10.224 22.835 22.835 22.835v0h196.506c12.567-0.058 22.733-10.259 22.733-22.835 0 0 0 0 0 0v0-93.286c0 0 0 0 0 0 0-12.576-10.165-22.777-22.727-22.835h-0.006zM140.595 473.6c-1.301 0-2.355-1.054-2.355-2.355v0-93.286c0-1.301 1.054-2.355 2.355-2.355v0h196.506c0.001 0 0.002 0 0.002 0 1.244 0 2.253 1.009 2.253 2.253 0 0.036-0.001 0.072-0.003 0.107v-0.005 93.286c0.001 0.031 0.002 0.066 0.002 0.102 0 1.244-1.009 2.253-2.253 2.253-0.001 0-0.002 0-0.002 0v0z" />
<glyph unicode="&#xe93f;" glyph-name="quotation" d="M0 394h268v-78.18c0-44.664-36.336-81-81-81h-103v-200h103c154.945 0 281 126.055 281 281v546.18h-468zM556 862v-468h268v-78.18c0-44.664-36.336-81-81-81h-103v-200h103c154.945 0 281 126.055 281 281v546.18z" />
<glyph unicode="&#xe940;" glyph-name="phone-call" d="M809.283 325.668c-20.964 21.828-46.25 33.499-73.049 33.499-26.583 0-52.085-11.454-73.914-33.283l-68.295-68.078c-5.619 3.026-11.238 5.835-16.641 8.645-7.78 3.89-15.129 7.564-21.396 11.454-63.972 40.631-122.109 93.581-177.869 162.092-27.015 34.147-45.17 62.892-58.353 92.068 17.722 16.209 34.147 33.067 50.14 49.276 6.051 6.051 12.103 12.319 18.154 18.37 45.386 45.386 45.386 104.171 0 149.557l-59.001 59.001c-6.7 6.7-13.616 13.616-20.099 20.532-12.967 13.4-26.583 27.231-40.631 40.199-20.964 20.748-46.034 31.77-72.401 31.77s-51.869-11.022-73.482-31.77c-0.216-0.216-0.216-0.216-0.432-0.432l-73.482-74.13c-27.664-27.664-43.441-61.379-46.899-100.497-5.187-63.108 13.4-121.893 27.664-160.363 35.012-94.445 87.313-181.975 165.333-275.772 94.662-113.032 208.558-202.29 338.664-265.182 49.708-23.557 116.058-51.437 190.188-56.192 4.539-0.216 9.293-0.432 13.616-0.432 49.924 0 91.852 17.938 124.703 53.598 0.216 0.432 0.648 0.648 0.864 1.081 11.238 13.616 24.206 25.935 37.821 39.118 9.293 8.861 18.803 18.154 28.096 27.88 21.396 22.261 32.634 48.195 32.634 74.778 0 26.799-11.454 52.518-33.283 74.13l-118.651 119.083zM886.654 98.092c-0.216 0-0.216-0.216 0 0-8.429-9.077-17.074-17.29-26.367-26.367-14.048-13.4-28.312-27.448-41.712-43.224-21.828-23.341-47.547-34.363-81.262-34.363-3.242 0-6.7 0-9.942 0.216-64.188 4.106-123.838 29.176-168.575 50.573-122.325 59.217-229.738 143.289-318.996 249.837-73.698 88.826-122.974 170.953-155.608 259.131-20.099 53.814-27.448 95.742-24.206 135.293 2.161 25.286 11.887 46.25 29.825 64.188l73.698 73.698c10.59 9.942 21.828 15.345 32.851 15.345 13.616 0 24.638-8.213 31.554-15.129 0.216-0.216 0.432-0.432 0.648-0.648 13.183-12.319 25.719-25.070 38.902-38.686 6.7-6.916 13.616-13.832 20.532-20.964l59.001-59.001c22.909-22.909 22.909-44.089 0-66.998-6.268-6.268-12.319-12.535-18.587-18.587-18.154-18.587-35.444-35.876-54.247-52.734-0.432-0.432-0.864-0.648-1.081-1.081-18.587-18.587-15.129-36.741-11.238-49.060 0.216-0.648 0.432-1.297 0.648-1.945 15.345-37.173 36.957-72.185 69.807-113.896l0.216-0.216c59.65-73.482 122.541-130.754 191.917-174.627 8.861-5.619 17.938-10.158 26.583-14.48 7.78-3.89 15.129-7.564 21.396-11.454 0.864-0.432 1.729-1.081 2.593-1.513 7.348-3.674 14.264-5.403 21.396-5.403 17.938 0 29.176 11.238 32.851 14.912l73.914 73.914c7.348 7.348 19.019 16.209 32.634 16.209 13.4 0 24.422-8.429 31.122-15.777 0.216-0.216 0.216-0.216 0.432-0.432l119.083-119.083c22.261-22.044 22.261-44.737 0.216-67.646zM553.394 716.417c56.624-9.509 108.061-36.309 149.124-77.372s67.646-92.5 77.372-149.124c2.377-14.264 14.696-24.206 28.744-24.206 1.729 0 3.242 0.216 4.971 0.432 15.993 2.593 26.583 17.722 23.99 33.715-11.671 68.511-44.089 130.97-93.581 180.462s-111.951 81.91-180.462 93.581c-15.993 2.593-30.905-7.997-33.715-23.773s7.564-31.122 23.557-33.715zM1022.811 508.292c-19.235 112.816-72.401 215.474-154.095 297.168s-184.352 134.86-297.168 154.095c-15.777 2.81-30.689-7.997-33.499-23.773-2.593-15.993 7.997-30.905 23.99-33.715 100.713-17.074 192.565-64.837 265.614-137.67 73.049-73.049 120.596-164.901 137.67-265.614 2.377-14.264 14.696-24.206 28.744-24.206 1.729 0 3.242 0.216 4.971 0.432 15.777 2.377 26.583 17.506 23.773 33.283z" />
<glyph unicode="&#xe941;" glyph-name="user" d="M504.702 466.735c67.765 0 126.437 24.305 174.39 72.258 47.937 47.945 72.25 106.609 72.25 174.382 0 67.75-24.305 126.422-72.258 174.382-47.953 47.937-106.625 72.242-174.382 72.242-67.773 0-126.437-24.305-174.382-72.25s-72.258-106.617-72.258-174.375c0-67.773 24.312-126.445 72.258-174.39 47.961-47.937 106.633-72.25 174.382-72.25zM372.757 845.321c36.789 36.789 79.945 54.672 131.945 54.672 51.992 0 95.156-17.883 131.953-54.672 36.789-36.797 54.68-79.961 54.68-131.945 0-52-17.891-95.156-54.68-131.953-36.797-36.797-79.961-54.68-131.953-54.68-51.984 0-95.14 17.891-131.945 54.68-36.797 36.789-54.687 79.953-54.687 131.953 0 51.984 17.891 95.148 54.687 131.945zM936.256 172.595c-1.383 19.953-4.18 41.719-8.297 64.703-4.156 23.156-9.508 45.047-15.914 65.055-6.625 20.68-15.617 41.101-26.75 60.672-11.539 20.312-25.102 38-40.32 52.555-15.914 15.227-35.398 27.469-57.93 36.398-22.453 8.883-47.336 13.383-73.953 13.383-10.453 0-20.562-4.289-40.086-17-12.016-7.836-26.070-16.898-41.758-26.922-13.414-8.547-31.586-16.555-54.031-23.805-21.898-7.086-44.133-10.68-66.086-10.68-21.937 0-44.172 3.594-66.086 10.68-22.422 7.242-40.601 15.25-53.992 23.797-15.539 9.93-29.602 18.992-41.797 26.937-19.508 12.711-29.617 17-40.070 17-26.625 0-51.5-4.508-73.945-13.398-22.516-8.914-42.008-21.156-57.937-36.398-15.219-14.562-28.781-32.242-40.312-52.547-11.117-19.57-20.117-39.984-26.742-60.68-6.398-20.008-11.75-41.891-15.906-65.047-4.125-22.953-6.914-44.726-8.297-64.726-1.359-19.555-2.047-39.906-2.047-60.469 0-53.453 16.992-96.726 50.5-128.64 33.094-31.492 76.875-47.461 130.133-47.461h493.062c53.242 0 97.023 15.969 130.125 47.461 33.516 31.891 50.508 75.18 50.508 128.648-0.008 20.633-0.703 40.984-2.070 60.484zM846.444 26.939c-21.867-20.812-50.898-30.93-88.758-30.93h-493.054c-37.867 0-66.898 10.117-88.758 30.922-21.445 20.414-31.867 48.281-31.867 85.172 0 19.187 0.633 38.133 1.898 56.32 1.234 17.844 3.758 37.445 7.5 58.273 3.695 20.57 8.398 39.875 13.992 57.351 5.367 16.758 12.687 33.351 21.766 49.336 8.664 15.234 18.633 28.305 29.633 38.836 10.289 9.852 23.258 17.914 38.539 23.961 14.133 5.594 30.016 8.656 47.258 9.117 2.102-1.117 5.844-3.25 11.906-7.203 12.336-8.039 26.555-17.211 42.273-27.25 17.719-11.297 40.547-21.5 67.82-30.305 27.883-9.016 56.32-13.594 84.547-13.594s56.672 4.578 84.539 13.586c27.297 8.82 50.117 19.016 67.859 30.328 16.086 10.281 29.906 19.187 42.242 27.234 6.062 3.945 9.805 6.086 11.906 7.203 17.25-0.461 33.133-3.523 47.273-9.117 15.273-6.047 28.242-14.117 38.531-23.961 11-10.523 20.969-23.594 29.633-38.844 9.086-15.977 16.414-32.578 21.773-49.32 5.602-17.5 10.312-36.797 14-57.351 3.734-20.867 6.266-40.476 7.5-58.289v-0.016c1.273-18.117 1.914-37.055 1.922-56.297-0.008-36.898-10.43-64.758-31.875-85.164z" />
<glyph unicode="&#xe942;" glyph-name="text" d="M96 704c0 17.673 14.327 32 32 32h768c17.674 0 32-14.327 32-32s-14.326-32-32-32h-768c-17.673 0-32 14.326-32 32zM96 192c0 17.674 14.327 32 32 32h768c17.674 0 32-14.326 32-32s-14.326-32-32-32h-768c-17.673 0-32 14.326-32 32zM266.668 448c0 17.674 14.326 32 32 32h597.332c17.674 0 32-14.326 32-32s-14.326-32-32-32h-597.332c-17.674 0-32 14.326-32 32z" />
<glyph unicode="&#xe943;" glyph-name="arrow-up" d="M892.928 224.768c-8.397 0-16.794 3.174-23.194 9.574l-357.734 357.786-357.734-357.734c-12.8-12.8-33.536-12.8-46.336 0s-12.8 33.536 0 46.336l380.928 380.928c12.8 12.8 33.536 12.8 46.336 0l380.928-380.928c12.8-12.8 12.8-33.536 0-46.336-6.4-6.451-14.797-9.626-23.194-9.626z" />
<glyph unicode="&#xe944;" glyph-name="home" d="M512.001 690.953l-365.205-301.073c0-0.425-0.107-1.050-0.32-1.902-0.209-0.845-0.32-1.459-0.32-1.895v-304.868c0-11.008 4.024-20.547 12.071-28.58 8.044-8.038 17.57-12.082 28.58-12.082h243.888v243.902h162.615v-243.911h243.886c11.008 0 20.547 4.036 28.58 12.091 8.047 8.024 12.084 17.57 12.084 28.58v304.868c0 1.691-0.231 2.968-0.641 3.797l-365.219 301.073zM1016.937 458.479l-139.090 115.597v259.143c0 5.924-1.904 10.796-5.726 14.609-3.791 3.809-8.663 5.713-14.6 5.713h-121.946c-5.931 0-10.801-1.904-14.616-5.713-3.806-3.813-5.708-8.687-5.708-14.609v-123.853l-154.974 129.575c-13.535 11.010-29.628 16.514-48.262 16.514-18.631 0-34.722-5.504-48.27-16.514l-456.687-380.462c-4.234-3.381-6.554-7.933-6.985-13.65-0.429-5.713 1.050-10.703 4.443-14.934l39.379-47.002c3.393-3.809 7.833-6.138 13.339-6.99 5.083-0.427 10.167 1.059 15.25 4.445l439.52 366.493 439.524-366.491c3.395-2.954 7.833-4.429 13.339-4.429h1.909c5.497 0.836 9.929 3.181 13.339 6.981l39.383 46.996c3.386 4.24 4.87 9.221 4.429 14.941-0.434 5.702-2.763 10.253-6.988 13.642z" />
<glyph unicode="&#xe945;" glyph-name="check" d="M879.514 718.986c17.916-15.677 19.541-42.987 3.605-60.674l-448.593-497.911c-16.019-17.779-43.523-18.91-60.946-2.509l-259.585 244.378c-16.189 15.241-17.738 40.636-3.849 57.997 15.326 19.157 43.866 21.794 62.106 5.389l201.403-181.158c17.503-15.744 44.45-14.336 60.219 3.145l385.856 427.815c15.612 17.312 42.24 18.882 59.785 3.529z" />
<glyph unicode="&#xe946;" glyph-name="open-mail" d="M1006 535.2c0 5.8-2.8 11.4-7.2 15l-474.6 387.4c-7.2 5.8-17.4 5.8-24.4 0l-474.6-387.4c-4.4-3.4-7.2-9.2-7.2-15v-562c0.2-10.6 9-19.2 19.4-19.2h949.2c10.6 0 19.4 8.8 19.4 19.4zM967.2 14.2l-319.6 261 319.6 223zM512 897.6l442.4-361.2-338-235.8-92.2 75.2c-7.2 5.8-17.4 5.8-24.4 0l-92.2-75.2-338 235.8zM56.8 498l319.6-223-319.6-260.8zM91.8-7.2l420.2 343 420.2-343z" />
<glyph unicode="&#xe947;" glyph-name="location-pin" d="M512-64c-5.035 0-10.069 1.792-14.123 5.333-15.104 13.355-369.877 329.856-369.877 634.667 0 211.755 172.288 384 384 384s384-172.245 384-384c0-304.811-354.773-621.312-369.877-634.667-4.053-3.541-9.088-5.333-14.123-5.333zM512 917.333c-188.203 0-341.333-153.131-341.333-341.333 0-252.501 275.243-527.275 341.333-589.611 66.091 62.336 341.333 337.109 341.333 589.611 0 188.203-153.131 341.333-341.333 341.333zM512 362.667c-117.632 0-213.333 95.701-213.333 213.333s95.701 213.333 213.333 213.333 213.333-95.701 213.333-213.333-95.701-213.333-213.333-213.333zM512 746.667c-94.123 0-170.667-76.544-170.667-170.667s76.544-170.667 170.667-170.667 170.667 76.544 170.667 170.667-76.544 170.667-170.667 170.667z" />
<glyph unicode="&#xe948;" glyph-name="list" d="M282.51 504h-213.020c-38.318 0-69.49 31.172-69.49 69.49v213.020c0 38.318 31.172 69.49 69.49 69.49h213.020c38.318 0 69.49-31.172 69.49-69.49v-213.020c0-38.318-31.172-69.49-69.49-69.49zM69.49 792c-3.028 0-5.49-2.462-5.49-5.49v-213.020c0-3.028 2.462-5.49 5.49-5.49h213.020c3.028 0 5.49 2.462 5.49 5.49v213.020c0 3.028-2.462 5.49-5.49 5.49zM282.51 40h-213.020c-38.318 0-69.49 31.172-69.49 69.49v213.020c0 38.318 31.172 69.49 69.49 69.49h213.020c38.318 0 69.49-31.172 69.49-69.49v-213.020c0-38.318-31.172-69.49-69.49-69.49zM69.49 328c-3.028 0-5.49-2.462-5.49-5.49v-213.020c0-3.028 2.462-5.49 5.49-5.49h213.020c3.028 0 5.49 2.462 5.49 5.49v213.020c0 3.028-2.462 5.49-5.49 5.49zM992 696h-512c-17.672 0-32 14.328-32 32s14.328 32 32 32h512c17.672 0 32-14.328 32-32s-14.328-32-32-32zM816 576h-336c-17.672 0-32 14.328-32 32s14.328 32 32 32h336c17.672 0 32-14.328 32-32s-14.328-32-32-32zM992 240h-512c-17.672 0-32 14.328-32 32s14.328 32 32 32h512c17.672 0 32-14.328 32-32s-14.328-32-32-32zM816 112h-336c-17.672 0-32 14.328-32 32s14.328 32 32 32h336c17.672 0 32-14.328 32-32s-14.328-32-32-32z" />
<glyph unicode="&#xe949;" glyph-name="categories" d="M352 896h-192c-53.019 0-96-42.981-96-96v0-192c0-53.019 42.981-96 96-96v0h192c53.019 0 96 42.981 96 96v0 192c0 53.019-42.981 96-96 96v0zM384 608c0-17.673-14.327-32-32-32v0h-192c-17.673 0-32 14.327-32 32v0 192c0 17.673 14.327 32 32 32v0h192c17.673 0 32-14.327 32-32v0zM864 896h-192c-53.019 0-96-42.981-96-96v0-192c0-53.019 42.981-96 96-96v0h192c53.019 0 96 42.981 96 96v0 192c0 53.019-42.981 96-96 96v0zM896 608c0-17.673-14.327-32-32-32v0h-192c-17.673 0-32 14.327-32 32v0 192c0 17.673 14.327 32 32 32v0h192c17.673 0 32-14.327 32-32v0zM352 384h-192c-53.019 0-96-42.981-96-96v0-192c0-53.019 42.981-96 96-96v0h192c53.019 0 96 42.981 96 96v0 192c0 53.019-42.981 96-96 96v0zM384 96c0-17.673-14.327-32-32-32v0h-192c-17.673 0-32 14.327-32 32v0 192c0 17.673 14.327 32 32 32v0h192c17.673 0 32-14.327 32-32v0zM864 384h-192c-53.019 0-96-42.981-96-96v0-192c0-53.019 42.981-96 96-96v0h192c53.019 0 96 42.981 96 96v0 192c0 53.019-42.981 96-96 96v0zM896 96c0-17.673-14.327-32-32-32v0h-192c-17.673 0-32 14.327-32 32v0 192c0 17.673 14.327 32 32 32v0h192c17.673 0 32-14.327 32-32v0z" />
<glyph unicode="&#xe94a;" glyph-name="left" d="M688.64 869.347c11.997 11.997 31.448 11.997 43.445 0 11.996-11.997 11.996-31.448 0-43.444l-377.897-377.897 377.909-377.909c11.997-11.996 11.997-31.447 0-43.444s-31.448-11.997-43.444 0l-396.743 396.743c-6.715 6.715-9.672 15.766-8.87 24.537-0.845 8.814 2.107 17.922 8.857 24.672z" />
<glyph unicode="&#xe94b;" glyph-name="increase" d="M664.297 960c-193.921 0-351.687-157.766-351.687-351.687 0-95.635 38.387-182.458 100.542-245.92l-57.206-57.206c-12.376 8.41-26.883 13.128-42.255 13.53-21.925 0.575-42.543-7.647-58.059-23.149l-233.825-233.827c-8.893-8.895-13.793-20.72-13.793-33.301s4.9-24.406 13.793-33.299l45.349-45.349c8.895-8.893 20.72-13.793 33.299-13.793s24.406 4.898 33.299 13.793l231.282 231.282c28.492 28.492 32.966 71.73 12.136 102.829l57.905 57.905c61.604-53.060 141.729-85.182 229.22-85.182 193.921 0 351.687 157.766 351.687 351.687s-157.766 351.687-351.687 351.687zM343.783 202.33l-231.282-231.282c-3.216-3.216-7.495-4.99-12.046-4.99s-8.827 1.771-12.044 4.99l-45.349 45.349c0 0 0 0 0 0-3.216 3.216-4.99 7.493-4.99 12.044s1.771 8.827 4.99 12.046l233.823 233.823c9.308 9.3 21.58 14.376 34.686 14.376 0.445 0 0.89-0.006 1.335-0.018 13.595-0.357 26.117-6.142 35.261-16.296 17.16-19.043 15.192-50.465-4.385-70.041zM664.297 286.685c-177.346 0-321.628 144.282-321.628 321.628s144.282 321.628 321.628 321.628 321.628-144.282 321.628-321.628-144.282-321.628-321.628-321.628zM664.297 895.875c-158.562 0-287.562-129-287.562-287.562s129-287.562 287.562-287.562 287.562 129 287.562 287.562-129 287.562-287.562 287.562zM664.297 350.81c-141.987 0-257.503 115.516-257.503 257.503s115.516 257.503 257.503 257.503 257.503-115.516 257.503-257.503-115.516-257.503-257.503-257.503zM881.754 659.868c-19.26 81.527-84.383 146.648-165.912 165.904-8.078 1.91-16.174-3.094-18.081-11.172s3.094-16.174 11.172-18.081c70.55-16.663 126.902-73.015 143.568-143.56 1.633-6.916 7.803-11.577 14.615-11.577 1.144 0 2.307 0.132 3.467 0.407 8.078 1.906 13.080 10.002 11.172 18.079zM792.548 623.342h-113.221v113.221c0 8.3-6.729 15.029-15.029 15.029s-15.029-6.729-15.029-15.029v-113.221h-113.221c-8.3 0-15.029-6.729-15.029-15.029s6.729-15.029 15.029-15.029h113.221v-113.221c0-8.3 6.729-15.029 15.029-15.029s15.029 6.729 15.029 15.029v113.221h113.221c8.3 0 15.029 6.729 15.029 15.029s-6.729 15.029-15.029 15.029z" />
</font>
</defs>
</svg>
